На всех торрентах на трекере установлена скидка на скачивание в размере 100 процентов(а).
 Возможность скачивания торрента НЕ зависит от ограничений при низком ратио, низком аплоаде, требуемом ратио или требуемом аплоаде.


Начать новую тему Ответить на тему
Статистика раздачи
Размер: 2.22 ГБ | Добавлен: 19 дек 2013, 08:42 | Скачали: 0
Сидеров: 0  [0 байт/сек]    Личеров: 0  [0 байт/сек]
Пред. тема | След. тема 

Автор
Сообщение

СообщениеДобавлено: 19 дек 2013, 08:42 

Мэрия / City Hall (1996) HDTVRip [H.264/720p-LQ] [Hi10P]

Год выпуска: 1996
Жанр: Триллер, Драма

Описание фильма: В уличной перестрелке в Нью-Йорке полицейский убивает племянника босса мафии. До этого момента мэр города Джон Паппас лихо обменивал небоскребы на политическую поддержку, нацеливаясь на президентское кресло. Теперь мафия наносит удар за ударом, оставляя везде свой кровавый след...

Режиссер: Хэролд Беккер

Актеры: Аль Пачино, Джон Кьюсак, Бриджит Фонда, Дэнни Айелло, Мартин Ландау, Дэвид Пэймер, Энтони Франчоза, Ричард Шифф, Линдсэй Дункан, Нестор Серрано

Качество видео: HDTVRip
Продолжительность: 01:51:13
Перевод: Профессиональный (двухголосый закадровый), Авторский (одноголосый закадровый)
Оригинальная аудио дорожка: Английская
Язык субтитров: Русский, Английский
Вид субтитров: Вшитые



Формат: MKV
Видео: MPEG-4 AVC/H.264, 1280x720(16:9), 23,976fps, 1991 Кbps, 0.090bit/pixel
Аудио 1: DVO Russian, AC3, 3ch, 48 kHz, 192 kbps, (Двухголосый)
Аудио 2: AVO Russian, AC3, 2ch, 48 kHz, 192 kbps, (Одноголосый - Гаврилов)
Аудио 3: English, AC3, 6ch, 48 kHz, 384 kbps, (Оригинал)
Общее
Полное имя : Мэрия (1996) HDTVRip-AVC.mkv
Формат : Matroska
Версия формата : Version 4 / Version 2
Размер файла : 2,22 Гбайт
Продолжительность : 1 ч. 52 м.
Общий поток : 2815 Кбит/сек
Название фильма : Мэрия / City Hall (1996) HDTVRip-AVC (Sinteros)
Программа кодирования : mkvmerge v6.6.0 ('The Edge Of The In Between') built on Dec 1 2013 17:55:00
Библиотека кодирования : libebml v1.3.0 + libmatroska v1.4.1
Attachment : Yes

Видео
Идентификатор : 1
Формат : AVC
Формат/Информация : Advanced Video Codec
Профиль формата : High
Параметр CABAC формата : Да
Параметр ReFrames формата : 11 кадров
Идентификатор кодека : V_MPEG4/ISO/AVC
Продолжительность : 1 ч. 52 м.
Битрейт : 1991 Кбит/сек
Ширина : 1280 пикселей
Высота : 720 пикселей
Соотношение сторон : 16:9
Режим частоты кадров : Постоянный
Частота кадров : 23,976 кадра/сек
Цветовое пространство : YUV
Субдискретизация насыщенности : 4:2:0
Битовая глубина : 10 бит
Тип развёртки : Прогрессивная
Бит/(Пиксели*Кадры) : 0.090
Размер потока : 1,57 Гбайт (71%)
Заголовок : MPEG-4 AVC/H.264, 1280x720(16:9), 23,976fps, 1991 Кbps, 0.090bit/pixel
Библиотека кодирования : x264 core 133 r2334 a3ac64b
Настройки программы : cabac=1 / ref=11 / deblock=1:-1:-1 / analyse=0x3:0x133 / me=tesa / subme=10 / psy=1 / psy_rd=1.00:0.15 / mixed_ref=1 / me_range=24 / chroma_me=1 / trellis=2 / 8x8dct=1 / cqm=0 / deadzone=21,11 / fast_pskip=1 / chroma_qp_offset=-3 / threads=12 / lookahead_threads=1 / sliced_threads=0 / nr=0 / decimate=1 / interlaced=0 / bluray_compat=0 / constrained_intra=0 / bframes=6 / b_pyramid=2 / b_adapt=2 / b_bias=0 / direct=3 / weightb=1 / open_gop=0 / weightp=2 / keyint=250 / keyint_min=23 / scenecut=40 / intra_refresh=0 / rc_lookahead=60 / rc=crf / mbtree=1 / crf=19.0 / qcomp=0.60 / qpmin=0 / qpmax=81 / qpstep=4 / ip_ratio=1.40 / aq=1:1.00
Язык : English
Default : Да
Forced : Нет

Аудио #1
Идентификатор : 2
Формат : AC-3
Формат/Информация : Audio Coding 3
Расширение режима : CM (complete main)
Параметр Endianness формата : Big
Идентификатор кодека : A_AC3
Продолжительность : 1 ч. 52 м.
Вид битрейта : Постоянный
Битрейт : 192 Кбит/сек
Каналы : 3 канала
Расположение каналов : Front: L R, Back: C
Частота : 48,0 КГц
Битовая глубина : 16 бит
Метод сжатия : С потерями
Задержка видео : 8 мс.
Размер потока : 155 Мбайт (7%)
Заголовок : DVO Russian, AC3, 3ch, 48 kHz, 192 kbps, (Двухголосый)
Язык : Russian
Default : Да
Forced : Нет

Аудио #2
Идентификатор : 3
Формат : AC-3
Формат/Информация : Audio Coding 3
Расширение режима : CM (complete main)
Параметр Endianness формата : Big
Идентификатор кодека : A_AC3
Продолжительность : 1 ч. 52 м.
Вид битрейта : Постоянный
Битрейт : 192 Кбит/сек
Каналы : 2 канала
Расположение каналов : Front: L R
Частота : 48,0 КГц
Битовая глубина : 16 бит
Метод сжатия : С потерями
Задержка видео : 20 мс.
Размер потока : 155 Мбайт (7%)
Заголовок : AVO Russian, AC3, 2ch, 48 kHz, 192 kbps, (Одноголосый - Гаврилов)
Язык : Russian
Default : Нет
Forced : Нет

Аудио #3
Идентификатор : 4
Формат : AC-3
Формат/Информация : Audio Coding 3
Расширение режима : CM (complete main)
Параметр Endianness формата : Big
Идентификатор кодека : A_AC3
Продолжительность : 1 ч. 52 м.
Вид битрейта : Постоянный
Битрейт : 384 Кбит/сек
Каналы : 6 каналов
Расположение каналов : Front: L C R, Side: L R, LFE
Частота : 48,0 КГц
Битовая глубина : 16 бит
Метод сжатия : С потерями
Размер потока : 310 Мбайт (14%)
Заголовок : English, AC3, 6ch, 48 kHz, 384 kbps, (Оригинал)
Язык : English
Default : Нет
Forced : Нет

Текст #1
Идентификатор : 5
Формат : UTF-8
Идентификатор кодека : S_TEXT/UTF8
Идентификатор кодека/Информация : UTF-8 Plain Text
Язык : Russian
Default : Нет
Forced : Нет

Текст #2
Идентификатор : 6
Формат : UTF-8
Идентификатор кодека : S_TEXT/UTF8
Идентификатор кодека/Информация : UTF-8 Plain Text
Язык : English
Default : Нет
Forced : Нет


Скриншоты:
загрузка...
Правила, инструкции, FAQ!!!
Торрент  Добавлен [19 дек 2013, 08:42] Скачать торрент
Скачать торрент
[ Размер 11.89 КБ / Просмотров 12 ]

Статус  
 
Размер  2.22 ГБ
Приватный: Нет (DHT включён)
.torrent скачан  0
Как залить торрент? | Как скачать Torrent? | Как смотреть и слушать онлайн?  


     Отправить личное сообщение
   
Страница 1 из 1
Показать сообщения за:  Поле сортировки  
Начать новую тему Ответить на тему

   Похожие торренты   Автор   Ответы   Просмотры   Последнее сообщение 
В этой теме нет новых непрочитанных сообщений. Скачать торрент Проверен Би-2 - Реки любви. Концерт в Crocus City Hall [2012, Rock, HDTVRip 720p]

в форуме Концерты (HD-Video), Размер: 1.83 ГБ, Здоровье: 100%

Anonymous

0
2|1

1
0

23 окт 2016, 13:44

Anonymous Перейти к последнему сообщению

В этой теме нет новых непрочитанных сообщений. Скачать торрент Проверен Heaven and Hell - Radio City Music Hall Live! [2011, Hard Rock, BDRip 720p]

в форуме Концерты (HD-Video), Размер: 6.67 ГБ, Здоровье: 100%

Гость

0
9|3

36
0

29 апр 2015, 19:15

Гость Перейти к последнему сообщению

В этой теме нет новых непрочитанных сообщений. Скачать торрент Проверен Garbage - Концерт 2012-05-12 Crocus City Hall, Москва (Часть) (ACiD KiSS) [2012, Rock, HDCamRip 720p]

в форуме Концерты (HD-Video), Размер: 6.12 ГБ, Здоровье: 100%

Anonymous

0
1|0

1
0

23 окт 2016, 11:23

Anonymous Перейти к последнему сообщению

В этой теме нет новых непрочитанных сообщений. Скачать торрент Проверен Alice Nine - World`s End Daybreak -Okyakusama Daiichi Shugi- @Shibuya Public Hall [M-ON! Live] [2013, JRock, HDTVRip 720p]

в форуме Концерты (HD-Video), Размер: 1.92 ГБ, Здоровье: 100%

Anonymous

0
1|0

1
0

23 окт 2016, 15:51

Anonymous Перейти к последнему сообщению

В этой теме нет новых непрочитанных сообщений. Скачать торрент Проверен Muse - United States Of Eurasia (Live, Children In Need, The Royal Albert Hall) [2009, Alternative Rock, HDTVRip, 720p]

в форуме Концерты (HD-Video), Размер: 145.99 МБ, Здоровье: 100%

Anonymous

0
1|0

2
0

23 окт 2016, 12:09

Anonymous Перейти к последнему сообщению



Сейчас этот форум просматривают: нет зарегистрированных пользователей и гости: 1


Вы не можете начинать темы
Вы не можете отвечать на сообщения
Вы не можете редактировать свои сообщения
Вы не можете удалять свои сообщения
Вы не можете добавлять вложения

Перейти:  

!ВНИМАНИЕ!
 Ресурс не предоставляет электронные версии произведений, а занимается лишь коллекционированием и каталогизацией ссылок, присылаемых и публикуемых на форуме нашими читателями. Если вы являетесь правообладателем какого-либо представленного материала и не желаете чтобы ссылка на него находилась в нашем каталоге, свяжитесь с нами и мы незамедлительно удалим её. Файлы для обмена на трекере предоставлены пользователями сайта, и администрация не несёт ответственности за их содержание. Просьба не заливать файлы, защищенные авторскими правами, а также файлы нелегального содержания!