На всех торрентах на трекере установлена скидка на скачивание в размере 100 процентов(а).
 Возможность скачивания торрента НЕ зависит от ограничений при низком ратио, низком аплоаде, требуемом ратио или требуемом аплоаде.


Начать новую тему Ответить на тему
Статистика раздачи
Размер: 7.76 ГБ | Добавлен: 18 дек 2013, 10:23 | Скачали: 82
Сидеров: 62  [0 байт/сек]    Личеров: 7  [0 байт/сек]
Пред. тема | След. тема 

Автор
Сообщение

СообщениеДобавлено: 18 дек 2013, 10:23 

Название: Побег из Шоушенка
Оригинальное название: The Shawshank Redemption
Год выхода: 1994
Жанр: драма, криминал
Режиссер: Фрэнк Дарабонт / Frank Darabont

В ролях: Тим Роббинс, Морган Фриман, Боб Гантон, Уильям Сэдлер, Клэнси Браун, Джил Беллоуз, Марк Ролстон, Джеймс Уайтмор и др.

О фильме:
Шоушенк — название тюрьмы. И если тебе нет еще 30-ти, а ты получаешь пожизненное, то приготовься к худшему: для тебя выхода из Шоушенка не будет!
Актриса Рита Хэйворт — любимица всей Америки. Энди Дифрейну она тоже очень нравилась. Рита никогда не слышала о существовании Энди, однако жизнь Дифрейну, бывшему вице-президенту крупного банка, осужденному за убийство жены и ее любовника, Рита Хэйворт все-таки спасла.



Выпущено: США
Продолжительность: 02:22:33
Перевод: Профессиональный (многоголосый, закадровый) Киномания + Оригинал


Кодек: x264
Качество: BDRip 1080p
Видео: 1920x1080, 6898 Kbps, 23.976 fps
Аудио #1: AC-3, 6 ch, 448 kbps (Rus)
Аудио #2: AC-3, 6 ch, 448 kbps (Eng)
Cубтитры: русские, английские
Скачать:

General
Unique ID : 187029350608011373126450571376006024314 (0x8CB48AED2D31D39DB4CA03F3AA244C7A)
Complete name : Побег из Шоушенка.1994.BDRip.1080p.Rus.Eng.mkv
Format : Matroska
Format version : Version 2
File size : 7.76 GiB
Duration : 2h 22mn
Overall bit rate : 7 794 Kbps
Movie name : Побег из Шоушенка.1994
Encoded date : UTC 2012-07-30 17:54:56
Writing application : mkvmerge v5.7.0 ('The Whirlwind') built on Jul 29 2012 15:12:35
Writing library : libebml v1.2.3 + libmatroska v1.3.0

Video
ID : 1
Format : AVC
Format/Info : Advanced Video Codec
Format profile : High@L4.1
Format settings, CABAC : Yes
Format settings, ReFrames : 4 frames
Codec ID : V_MPEG4/ISO/AVC
Duration : 2h 22mn
Bit rate : 6 898 Kbps
Width : 1 920 pixels
Height : 1 080 pixels
Display aspect ratio : 16:9
Frame rate : 23.976 fps
Color space : YUV
Chroma subsampling : 4:2:0
Bit depth : 8 bits
Scan type : Progressive
Bits/(Pixel*Frame) : 0.139
Stream size : 6.71 GiB (87%)
Title : Rip by Boriy
Writing library : x264 core 125 r2208 d9d2288
Encoding settings : cabac=1 / ref=4 / deblock=1:-3:-3 / analyse=0x3:0x113 / me=umh / subme=10 / psy=1 / psy_rd=1.00:0.10 / mixed_ref=1 / me_range=32 / chroma_me=1 / trellis=2 / 8x8dct=1 / cqm=0 / deadzone=21,11 / fast_pskip=0 / chroma_qp_offset=-3 / threads=12 / lookahead_threads=2 / sliced_threads=0 / nr=0 / decimate=0 / interlaced=0 / bluray_compat=0 / constrained_intra=0 / bframes=5 / b_pyramid=2 / b_adapt=2 / b_bias=0 / direct=3 / weightb=1 / open_gop=0 / weightp=2 / keyint=240 / keyint_min=23 / scenecut=40 / intra_refresh=0 / rc_lookahead=60 / rc=2pass / mbtree=1 / bitrate=6898 / ratetol=1.0 / qcomp=0.60 / qpmin=0 / qpmax=69 / qpstep=4 / cplxblur=20.0 / qblur=0.5 / ip_ratio=1.40 / aq=1:1.00
Language : English
Default : Yes
Forced : No

Audio #1
ID : 2
Format : AC-3
Format/Info : Audio Coding 3
Mode extension : CM (complete main)
Format settings, Endianness : Big
Codec ID : A_AC3
Duration : 2h 22mn
Bit rate mode : Constant
Bit rate : 448 Kbps
Channel(s) : 6 channels
Channel positions : Front: L C R, Side: L R, LFE
Sampling rate : 48.0 KHz
Bit depth : 16 bits
Compression mode : Lossy
Stream size : 457 MiB (6%)
Title : Профессиональный (многоголосый, закадровый) Киномания
Language : Russian
Default : Yes
Forced : No

Audio #2
ID : 3
Format : AC-3
Format/Info : Audio Coding 3
Mode extension : CM (complete main)
Format settings, Endianness : Big
Codec ID : A_AC3
Duration : 2h 22mn
Bit rate mode : Constant
Bit rate : 448 Kbps
Channel(s) : 6 channels
Channel positions : Front: L C R, Side: L R, LFE
Sampling rate : 48.0 KHz
Bit depth : 16 bits
Compression mode : Lossy
Stream size : 457 MiB (6%)
Title : Оригинал
Language : English
Default : No
Forced : No

Text #1
ID : 4
Format : UTF-8
Codec ID : S_TEXT/UTF8
Codec ID/Info : UTF-8 Plain Text
Language : Russian
Default : No
Forced : No

Text #2
ID : 5
Format : UTF-8
Codec ID : S_TEXT/UTF8
Codec ID/Info : UTF-8 Plain Text
Language : English
Default : No
Forced : No

Menu
00:00:00.000 : :Chapter 1
00:04:41.114 : :Chapter 2
00:06:40.817 : :Chapter 3
00:10:08.316 : :Chapter 4
00:13:47.076 : :Chapter 5
00:18:00.913 : :Chapter 6
00:23:44.256 : :Chapter 7
00:29:02.074 : :Chapter 8
00:33:33.845 : :Chapter 9
00:38:51.913 : :Chapter 10
00:41:07.256 : :Chapter 11
00:42:41.642 : :Chapter 12
00:46:15.398 : :Chapter 13
00:48:15.434 : :Chapter 14
00:51:22.538 : :Chapter 15
00:57:20.103 : :Chapter 16
01:00:28.458 : :Chapter 17
01:05:46.818 : :Chapter 18
01:07:17.659 : :Chapter 19
01:11:04.677 : :Chapter 20
01:13:54.221 : :Chapter 21
01:15:56.552 : :Chapter 22
01:21:09.239 : :Chapter 23
01:23:59.952 : :Chapter 24
01:29:27.279 : :Chapter 25
01:32:11.484 : :Chapter 26
01:35:38.149 : :Chapter 27
01:38:29.862 : :Chapter 28
01:40:39.367 : :Chapter 29
01:47:24.146 : :Chapter 30
01:50:46.640 : :Chapter 31
01:54:32.115 : :Chapter 32
02:00:36.521 : :Chapter 33
02:04:10.318 : :Chapter 34
02:05:51.377 : :Chapter 35
02:08:26.824 : :Chapter 36
02:10:14.515 : :Chapter 37
02:12:57.136 : :Chapter 38
02:16:28.722 : :Chapter 39
02:18:08.572 : :Chapter 40
загрузка...
Правила, инструкции, FAQ!!!
Торрент  Добавлен [18 дек 2013, 10:23] Скачать торрент
Скачать торрент
[ Размер 39.24 КБ / Просмотров 9 ]

Статус  
 
Размер  7.76 ГБ
Приватный: Нет (DHT включён)
.torrent скачан  82
Как залить торрент? | Как скачать Torrent? | Как смотреть и слушать онлайн?  


     Отправить личное сообщение
   
Страница 1 из 1
Показать сообщения за:  Поле сортировки  
Начать новую тему Ответить на тему

   Похожие торренты   Автор   Ответы   Просмотры   Последнее сообщение 
В этой теме нет новых непрочитанных сообщений. Скачать торрент Побег из Шоушенка / The Shawshank Redemption (1994) BDRip

в форуме Драмы, Мелодрамы, Размер: 2.19 ГБ, Здоровье: 100%

Anonymous

0
186|4

18
153

18 дек 2013, 10:10

Anonymous Перейти к последнему сообщению

В этой теме нет новых непрочитанных сообщений. Скачать торрент Побег из Шоушенка / The Shawshank Redemption (1994) BDRip 720p

в форуме 720p | 1080p, Размер: 3.75 ГБ, Здоровье: 100%

Anonymous

0
202|5

24
155

18 дек 2013, 10:18

Anonymous Перейти к последнему сообщению

В этой теме нет новых непрочитанных сообщений. Скачать торрент Побег из тюрьмы / Prison Break [S01-04 + Финальный побег] (2005-2009) BDRip 720p

в форуме Зарубежные сериалы, Размер: 59.49 ГБ, Здоровье: 100%

Anonymous

0
47|0

98
0

15 мар 2014, 21:20

Anonymous Перейти к последнему сообщению

В этой теме нет новых непрочитанных сообщений. Скачать торрент Проверен Три часа на побег (В упор) / À bout portant (Point Blank) (2010) BDRip 1080p | P,A,L

в форуме 720p | 1080p, Размер: 7.87 ГБ, Здоровье: 100%

Anonymous

0
36|0

44
1781

26 июл 2014, 07:53

Anonymous Перейти к последнему сообщению

В этой теме нет новых непрочитанных сообщений. Скачать торрент Проверен Б.О.Б. Очередной побег в 3Д / B.O.B.'s Big Break 3D (Роберт Портер / Robert Porter) [2009 г., анимация, комедия, фантастика, BDRip 1080p] Anaglyph / Анаглиф

в форуме 3D Мультфильмы, Размер: 941.68 МБ, Здоровье: 0%

Anonymous

0
0|0

6
0

07 сен 2016, 17:31

Anonymous Перейти к последнему сообщению



Сейчас этот форум просматривают: нет зарегистрированных пользователей и гости: 1


Вы не можете начинать темы
Вы не можете отвечать на сообщения
Вы не можете редактировать свои сообщения
Вы не можете удалять свои сообщения
Вы не можете добавлять вложения

Перейти:  

!ВНИМАНИЕ!
 Ресурс не предоставляет электронные версии произведений, а занимается лишь коллекционированием и каталогизацией ссылок, присылаемых и публикуемых на форуме нашими читателями. Если вы являетесь правообладателем какого-либо представленного материала и не желаете чтобы ссылка на него находилась в нашем каталоге, свяжитесь с нами и мы незамедлительно удалим её. Файлы для обмена на трекере предоставлены пользователями сайта, и администрация не несёт ответственности за их содержание. Просьба не заливать файлы, защищенные авторскими правами, а также файлы нелегального содержания!