На всех торрентах на трекере установлена скидка на скачивание в размере 100 процентов(а).
 Возможность скачивания торрента НЕ зависит от ограничений при низком ратио, низком аплоаде, требуемом ратио или требуемом аплоаде.


Начать новую тему Ответить на тему
Статистика раздачи
Размер: 4.95 ГБ | Добавлен: 17 дек 2013, 23:42 | Скачали: 0
Сидеров: 0  [0 байт/сек]    Личеров: 0  [0 байт/сек]
Пред. тема | След. тема 

Автор
Сообщение

СообщениеДобавлено: 17 дек 2013, 23:42 

Название: Корабль-призрак
Оригинальное название: Ghost Ship
Год выпуска: 2002
Жанр: Ужасы, триллер, детектив
Выпущено: США, Австралия, Dark Castle Entertainment
Режиссер: Стив Бек

В ролях: Гэбриел Бирн, Джулианна Маргулис, Рон Элдард, Десмонд Харрингтон, Айзэйя Вашингтон, Алекс Димитриадес, Карл Урбан, Эмили Браунинг, Франческа Реттондини, Борис Бркич

О фильме: В отдалённой области Берингова моря команда спасателей обнаруживает останки огромного пассажирского лайнера, который считался затерянным на протяжении более сорока лет. Оказавшись на борту судна, спасатели сталкиваются с жутким прошлым корабля и вынуждены вступить в смертельную схватку, ставка в которой — их жизнь.

Качество: BDRip 720p
Продолжительность: 01:30:43

Видео: MPEG-4 AVC, 4972 Кбит/с, 1276x720
Аудио 1: русский, 48 kHz, AC3, 6 ch, 448 kbps avg, [Дублированный]
Аудио 2: русский, 48 kHz, AC3, 6 ch, 448 kbps avg, [Профессиональный многоголосый]
Аудио 3: русский, 48 kHz, AC3, 6 ch, 448 kbps avg, [Авторский, Андрей Гаврилов]
Аудио 4: русский, 48 kHz, AC3, 6 ch, 448 kbps avg, [Авторский, Юрий Живов]
Аудио 5: русский, 48 kHz, AC3, 6 ch, 448 kbps avg, [Авторский, Евгений Рудой]
Аудио 6: английский, 48 kHz, AC3, 6 ch, 448 kbps avg, [Оригинал]
Субтитры 1: русские
Субтитры 2: английские





Общее
Уникальный идентификатор : 176942125100700807168536654103148034366 (0x851DD04FA8A025B7AB2A3B730164F93E)
Полное имя : E:VideoKorabl-prizrak.2002.x264.BDRip.720p.mkv
Формат : Matroska
Версия формата : Version 4 / Version 2
Размер файла : 4,95 Гбайт
Продолжительность : 1 ч. 30 м.
Общий поток : 7816 Кбит/сек
Название фильма : Корабль-призрак / Ghost Ship (2002) BDRip -- STarankov
Дата кодирования : UTC 2013-12-17 01:38:39
Программа кодирования : mkvmerge v6.6.0 ('The Edge Of The In Between') built on Dec 1 2013 17:55:00
Библиотека кодирования : libebml v1.3.0 + libmatroska v1.4.1

Видео
Идентификатор : 1
Формат : AVC
Формат/Информация : Advanced Video Codec
Профиль формата : High@L4.1
Параметр CABAC формата : Да
Параметр ReFrames формата : 9 кадров
Идентификатор кодека : V_MPEG4/ISO/AVC
Продолжительность : 1 ч. 30 м.
Битрейт : 4972 Кбит/сек
Ширина : 1276 пикселей
Высота : 720 пикселей
Соотношение сторон : 16:9
Режим частоты кадров : Постоянный
Частота кадров : 23,976 кадра/сек
Цветовое пространство : YUV
Субдискретизация насыщенности : 4:2:0
Битовая глубина : 8 бит
Тип развёртки : Прогрессивная
Бит/(Пиксели*Кадры) : 0.226
Размер потока : 3,15 Гбайт (64%)
Библиотека кодирования : x264 core 138 r2358 9e941d1
Настройки программы : cabac=1 / ref=9 / deblock=1:-1:-1 / analyse=0x3:0x113 / me=umh / subme=10 / psy=1 / psy_rd=1.00:0.15 / mixed_ref=1 / me_range=24 / chroma_me=1 / trellis=2 / 8x8dct=1 / cqm=0 / deadzone=21,11 / fast_pskip=0 / chroma_qp_offset=-3 / threads=6 / lookahead_threads=1 / sliced_threads=0 / nr=0 / decimate=1 / interlaced=0 / bluray_compat=0 / constrained_intra=0 / bframes=8 / b_pyramid=2 / b_adapt=2 / b_bias=0 / direct=3 / weightb=1 / open_gop=0 / weightp=2 / keyint=230 / keyint_min=23 / scenecut=40 / intra_refresh=0 / rc_lookahead=60 / rc=crf / mbtree=0 / crf=19.0 / qcomp=0.60 / qpmin=0 / qpmax=69 / qpstep=4 / vbv_maxrate=50000 / vbv_bufsize=62500 / crf_max=0.0 / nal_hrd=none / ip_ratio=1.40 / pb_ratio=1.30 / aq=1:0.90
Язык : English
Default : Да
Forced : Нет

Аудио #1
Идентификатор : 2
Формат : AC-3
Формат/Информация : Audio Coding 3
Расширение режима : CM (complete main)
Параметр Endianness формата : Big
Идентификатор кодека : A_AC3
Продолжительность : 1 ч. 30 м.
Вид битрейта : Постоянный
Битрейт : 448 Кбит/сек
Каналы : 6 каналов
Расположение каналов : Front: L C R, Side: L R, LFE
Частота : 48,0 КГц
Битовая глубина : 16 бит
Метод сжатия : С потерями
Размер потока : 291 Мбайт (6%)
Заголовок : DUB
Язык : Russian
Default : Да
Forced : Нет

Аудио #2
Идентификатор : 3
Формат : AC-3
Формат/Информация : Audio Coding 3
Расширение режима : CM (complete main)
Параметр Endianness формата : Big
Идентификатор кодека : A_AC3
Продолжительность : 1 ч. 30 м.
Вид битрейта : Постоянный
Битрейт : 448 Кбит/сек
Каналы : 6 каналов
Расположение каналов : Front: L C R, Side: L R, LFE
Частота : 48,0 КГц
Битовая глубина : 16 бит
Метод сжатия : С потерями
Размер потока : 291 Мбайт (6%)
Заголовок : MVO
Язык : Russian
Default : Нет
Forced : Нет

Аудио #3
Идентификатор : 4
Формат : AC-3
Формат/Информация : Audio Coding 3
Расширение режима : CM (complete main)
Параметр Endianness формата : Big
Идентификатор кодека : A_AC3
Продолжительность : 1 ч. 30 м.
Вид битрейта : Постоянный
Битрейт : 448 Кбит/сек
Каналы : 6 каналов
Расположение каналов : Front: L C R, Side: L R, LFE
Частота : 48,0 КГц
Битовая глубина : 16 бит
Метод сжатия : С потерями
Размер потока : 291 Мбайт (6%)
Заголовок : AVO (Андрей Гаврилов)
Язык : Russian
Default : Нет
Forced : Нет

Аудио #4
Идентификатор : 5
Формат : AC-3
Формат/Информация : Audio Coding 3
Расширение режима : CM (complete main)
Параметр Endianness формата : Big
Идентификатор кодека : A_AC3
Продолжительность : 1 ч. 30 м.
Вид битрейта : Постоянный
Битрейт : 448 Кбит/сек
Каналы : 6 каналов
Расположение каналов : Front: L C R, Side: L R, LFE
Частота : 48,0 КГц
Битовая глубина : 16 бит
Метод сжатия : С потерями
Размер потока : 291 Мбайт (6%)
Заголовок : AVO (Юрий Жтвов)
Язык : Russian
Default : Нет
Forced : Нет

Аудио #5
Идентификатор : 6
Формат : AC-3
Формат/Информация : Audio Coding 3
Расширение режима : CM (complete main)
Параметр Endianness формата : Big
Идентификатор кодека : A_AC3
Продолжительность : 1 ч. 30 м.
Вид битрейта : Постоянный
Битрейт : 448 Кбит/сек
Каналы : 6 каналов
Расположение каналов : Front: L C R, Side: L R, LFE
Частота : 48,0 КГц
Битовая глубина : 16 бит
Метод сжатия : С потерями
Размер потока : 291 Мбайт (6%)
Заголовок : AVO (Евгений Рудой)
Язык : Russian
Default : Нет
Forced : Нет

Аудио #6
Идентификатор : 7
Формат : AC-3
Формат/Информация : Audio Coding 3
Расширение режима : CM (complete main)
Параметр Endianness формата : Big
Идентификатор кодека : A_AC3
Продолжительность : 1 ч. 30 м.
Вид битрейта : Постоянный
Битрейт : 448 Кбит/сек
Каналы : 6 каналов
Расположение каналов : Front: L C R, Side: L R, LFE
Частота : 48,0 КГц
Битовая глубина : 16 бит
Метод сжатия : С потерями
Размер потока : 291 Мбайт (6%)
Заголовок : Original
Язык : English
Default : Нет
Forced : Нет

Текст #1
Идентификатор : 8
Формат : UTF-8
Идентификатор кодека : S_TEXT/UTF8
Идентификатор кодека/Информация : UTF-8 Plain Text
Заголовок : русский
Язык : Russian
Default : Нет
Forced : Нет

Текст #2
Идентификатор : 9
Формат : UTF-8
Идентификатор кодека : S_TEXT/UTF8
Идентификатор кодека/Информация : UTF-8 Plain Text
Заголовок : английский (для слабослышащих)
Default : Нет
Forced : Нет

---[Information] [16.12.2013 16:49:54] avs [info]: 1276x720p 1:1 @ 24000/1001 fps (cfr)
---[Information] [16.12.2013 16:49:54] x264 [info]: using SAR=1/1
---[Information] [16.12.2013 16:49:54] x264 [info]: using cpu capabilities: MMX2 SSE2Fast SSSE3 SSE4.2
---[Information] [16.12.2013 16:49:54] x264 [info]: profile High, level 4.1
---[Information] [17.12.2013 3:34:20] x264 [info]: frame I:1245 Avg QP:16.30 size: 92762
---[Information] [17.12.2013 3:34:20] x264 [info]: frame P:26962 Avg QP:17.45 size: 50605
---[Information] [17.12.2013 3:34:20] x264 [info]: frame B:102305 Avg QP:19.78 size: 19618
---[Information] [17.12.2013 3:34:20] x264 [info]: consecutive B-frames: 2.1% 1.9% 4.9% 17.7% 17.7% 45.6% 6.4% 2.3% 1.3%
---[Information] [17.12.2013 3:34:20] x264 [info]: mb I I16..4: 7.7% 84.4% 7.9%
---[Information] [17.12.2013 3:34:20] x264 [info]: mb P I16..4: 1.9% 30.6% 1.4% P16..4: 31.3% 21.7% 8.3% 0.0% 0.0% skip: 4.7%
---[Information] [17.12.2013 3:34:20] x264 [info]: mb B I16..4: 0.2% 2.6% 0.1% B16..8: 41.3% 13.3% 2.8% direct:10.4% skip:29.4% L0:44.9% L1:45.5% BI: 9.6%
---[Information] [17.12.2013 3:34:20] x264 [info]: 8x8 transform intra:89.5% inter:64.1%
---[Information] [17.12.2013 3:34:20] x264 [info]: direct mvs spatial:100.0% temporal:0.0%
---[Information] [17.12.2013 3:34:20] x264 [info]: coded y,uvDC,uvAC intra: 92.7% 79.5% 49.6% inter: 36.0% 27.8% 1.2%
---[Information] [17.12.2013 3:34:20] x264 [info]: i16 v,h,dc,p: 25% 10% 16% 49%
---[Information] [17.12.2013 3:34:20] x264 [info]: i8 v,h,dc,ddl,ddr,vr,hd,vl,hu: 9% 8% 12% 10% 12% 12% 12% 12% 13%
---[Information] [17.12.2013 3:34:20] x264 [info]: i4 v,h,dc,ddl,ddr,vr,hd,vl,hu: 10% 7% 5% 9% 15% 15% 14% 12% 14%
---[Information] [17.12.2013 3:34:20] x264 [info]: i8c dc,h,v,p: 42% 25% 20% 12%
---[Information] [17.12.2013 3:34:20] x264 [info]: Weighted P-Frames: Y:8.5% UV:4.1%
---[Information] [17.12.2013 3:34:20] x264 [info]: ref P L0: 42.0% 8.8% 19.5% 8.4% 6.9% 4.8% 4.3% 2.6% 2.5% 0.3% 0.0%
---[Information] [17.12.2013 3:34:20] x264 [info]: ref B L0: 70.8% 12.7% 6.5% 3.6% 2.6% 2.1% 1.2% 0.5%
---[Information] [17.12.2013 3:34:20] x264 [info]: ref B L1: 92.2% 7.8%
---[Information] [17.12.2013 3:34:20] x264 [info]: kb/s:5124.58
---[Information] [17.12.2013 3:34:20] encoded 130512 frames, 3.38 fps, 5124.58 kb/s
--[Information] [17.12.2013 3:34:24] Final statistics
---[Information] [17.12.2013 3:34:24] Constant Quality Mode: Quality 19 computed...
---[Information] [17.12.2013 3:34:24] Video Bitrate Obtained (approximate): 5126 kbit/s
--[Information] [17.12.2013 3:34:24] MediaInfo
---[Information] File: E:RipKorabl-prizrak.2002.x264.BDRipKorabl-prizrak.2002.x264.BDRip.720p.mkv


загрузка...
Правила, инструкции, FAQ!!!
Торрент  Добавлен [17 дек 2013, 23:42] Скачать торрент
Скачать торрент
[ Размер 25.22 КБ / Просмотров 7 ]

Статус  
 
Размер  4.95 ГБ
Приватный: Нет (DHT включён)
.torrent скачан  0
Как залить торрент? | Как скачать Torrent? | Как смотреть и слушать онлайн?  


     Отправить личное сообщение
   
Страница 1 из 1
Показать сообщения за:  Поле сортировки  
Начать новую тему Ответить на тему

   Похожие торренты   Автор   Ответы   Просмотры   Последнее сообщение 
В этой теме нет новых непрочитанных сообщений. Скачать торрент Корабль-призрак / Ghost Ship (2002) HDRip | D

в форуме Триллеры, Размер: 1.44 ГБ, Здоровье: 100%

Anonymous

0
127|26

110
0

17 дек 2013, 23:47

Anonymous Перейти к последнему сообщению

В этой теме нет новых непрочитанных сообщений. Скачать торрент Корабль-призрак / Ghost Ship (Стив Бек / Steve Beck) [2002, США, Австралия, Триллер, Ужасы, Мистика, HDRip-AVC] Dub

в форуме Триллеры, Размер: 1.45 ГБ, Здоровье: 100%

Anonymous

0
34|11

75
0

25 апр 2014, 08:55

Anonymous Перейти к последнему сообщению

В этой теме нет новых непрочитанных сообщений. Скачать торрент Проверен (Melodic Progressive / Heavy Metal) [CD] Ghost Ship Octavius - Ghost Ship Octavius - 2015, FLAC (image+.cue), lossless

в форуме Heavy, Power, Progressive (Metal), Размер: 394.24 МБ, Здоровье: 100%

Anonymous

0
5|2

2
0

11 окт 2016, 20:07

Anonymous Перейти к последнему сообщению

В этой теме нет новых непрочитанных сообщений. Скачать торрент Проверен (Melodic Progressive / Heavy Metal) Ghost Ship Octavius - Ghost Ship Octavius - 2015, MP3, 320 kbps

в форуме Heavy, Power, Progressive (Metal), Размер: 125.56 МБ, Здоровье: 100%

Anonymous

0
5|2

0
0

09 окт 2016, 17:30

Anonymous Перейти к последнему сообщению

В этой теме нет новых непрочитанных сообщений. Скачать торрент Призрак / The Ghost Writer (Роман Полански / Roman Polanski) [2010, Германия, Франция, Великобритания, триллер, драма, детектив, BDRip] DUB

в форуме Триллеры, Размер: 1.46 ГБ, Здоровье: 0%

Anonymous

0
0|0

73
0

13 фев 2014, 06:33

Anonymous Перейти к последнему сообщению



Сейчас этот форум просматривают: нет зарегистрированных пользователей и гости: 1


Вы не можете начинать темы
Вы не можете отвечать на сообщения
Вы не можете редактировать свои сообщения
Вы не можете удалять свои сообщения
Вы не можете добавлять вложения

Перейти:  

!ВНИМАНИЕ!
 Ресурс не предоставляет электронные версии произведений, а занимается лишь коллекционированием и каталогизацией ссылок, присылаемых и публикуемых на форуме нашими читателями. Если вы являетесь правообладателем какого-либо представленного материала и не желаете чтобы ссылка на него находилась в нашем каталоге, свяжитесь с нами и мы незамедлительно удалим её. Файлы для обмена на трекере предоставлены пользователями сайта, и администрация не несёт ответственности за их содержание. Просьба не заливать файлы, защищенные авторскими правами, а также файлы нелегального содержания!