На всех торрентах на трекере установлена скидка на скачивание в размере 100 процентов(а).
 Возможность скачивания торрента НЕ зависит от ограничений при низком ратио, низком аплоаде, требуемом ратио или требуемом аплоаде.


Начать новую тему Ответить на тему
Статистика раздачи
Размер: 7.76 ГБ | Добавлен: 17 дек 2013, 23:00 | Скачали: 0
Сидеров: 0  [0 байт/сек]    Личеров: 0  [0 байт/сек]
Пред. тема | След. тема 

Автор
Сообщение

СообщениеДобавлено: 17 дек 2013, 23:00 

Название: Залечь на дно в Брюгге
Оригинальное название: In Bruges
Год выхода: 2008
Жанр: триллер, драма, комедия, криминал
Режиссер: Мартин МакДона

В ролях: Колин Фаррелл, Брендан Глисон, Рэйф Файнс, Клеменс Поэзи, Джордан Прентис, Текла Рютен, Желько Иванек, Жереми Ренье, Эрик Годон

О фильме:
После того, как наемные убийцы Рэй и Кен запороли в Лондоне важное задание, их злобный шеф Гарри приказывает им отправиться в Брюгге и не высовываться. Оказавшись в старинном бельгийском городке, Рэй от нечего делать флиртует с местной красоткой, пока Кен наслаждается жизнью и неожиданным отпуском. Кажется, ничто не предвещает беду в спокойном городе…



Выпущено: США, Великобритания
Продолжительность: 01:46:57
Перевод: Дублированный + Оригинал


Кодек: H264
Качество: BDRip 1080p
Видео: 1920x816, 9494 Kbps, 24,000 fps
Аудио #1: AC-3, 6 ch, 448 kbps (Rus)
Аудио #2: AC-3, 6 ch, 448 kbps (Eng)
Cубтитры: русские, английские

Общее
Уникальный идентификатор : 214097428196179722623903027716903756347 (0xA111AA30327FCD4B80649CC4FEFD623B)
Полное имя : Залечь на дно в Брюгге.2008.BDRip.1080p.Rus.Eng.mkv
Формат : Matroska
Версия формата : Version 2
Размер файла : 7,76 Гбайт
Продолжительность : 1 ч. 46 м.
Общий поток : 10,4 Мбит/сек
Название фильма : Залечь на дно в Брюгге.2008
Дата кодирования : UTC 2013-12-17 15:48:36
Программа кодирования : mkvmerge v5.8.0 ('No Sleep / Pillow') built on Sep 2 2012 15:37:04
Библиотека кодирования : libebml v1.2.3 + libmatroska v1.3.0

Видео
Идентификатор : 1
Формат : AVC
Формат/Информация : Advanced Video Codec
Профиль формата : High@L4.1
Параметр CABAC формата : Да
Параметр ReFrames формата : 5 кадров
Идентификатор кодека : V_MPEG4/ISO/AVC
Продолжительность : 1 ч. 46 м.
Битрейт : 9494 Кбит/сек
Ширина : 1920 пикселей
Высота : 816 пикселей
Соотношение сторон : 2,35:1
Режим частоты кадров : Постоянный
Частота кадров : 24,000 кадра/сек
Цветовое пространство : YUV
Субдискретизация насыщенности : 4:2:0
Битовая глубина : 8 бит
Тип развёртки : Прогрессивная
Бит/(Пиксели*Кадры) : 0.252
Размер потока : 6,94 Гбайт (89%)
Заголовок : Rip by Boriy
Библиотека кодирования : x264 core 140 r2377 1ca7bb9
Настройки программы : cabac=1 / ref=5 / deblock=1:-3:-3 / analyse=0x3:0x113 / me=umh / subme=11 / psy=1 / psy_rd=1.00:0.00 / mixed_ref=1 / me_range=32 / chroma_me=1 / trellis=2 / 8x8dct=1 / cqm=0 / deadzone=21,11 / fast_pskip=0 / chroma_qp_offset=-2 / threads=12 / lookahead_threads=1 / sliced_threads=0 / nr=0 / decimate=0 / interlaced=0 / bluray_compat=0 / constrained_intra=0 / bframes=6 / b_pyramid=2 / b_adapt=2 / b_bias=0 / direct=3 / weightb=1 / open_gop=0 / weightp=2 / keyint=240 / keyint_min=24 / scenecut=40 / intra_refresh=0 / rc=2pass / mbtree=0 / bitrate=9494 / ratetol=1.0 / qcomp=0.60 / qpmin=0 / qpmax=69 / qpstep=4 / cplxblur=20.0 / qblur=0.5 / ip_ratio=1.40 / pb_ratio=1.30 / aq=1:0.90
Язык : English
Default : Да
Forced : Нет

Аудио #1
Идентификатор : 2
Формат : AC-3
Формат/Информация : Audio Coding 3
Расширение режима : CM (complete main)
Параметр Endianness формата : Big
Идентификатор кодека : A_AC3
Продолжительность : 1 ч. 46 м.
Вид битрейта : Постоянный
Битрейт : 448 Кбит/сек
Каналы : 6 каналов
Расположение каналов : Front: L C R, Side: L R, LFE
Частота : 48,0 КГц
Битовая глубина : 16 бит
Метод сжатия : С потерями
Размер потока : 343 Мбайт (4%)
Заголовок : Дубляж
Язык : Russian
Default : Да
Forced : Нет

Аудио #2
Идентификатор : 3
Формат : AC-3
Формат/Информация : Audio Coding 3
Расширение режима : CM (complete main)
Параметр Endianness формата : Big
Идентификатор кодека : A_AC3
Продолжительность : 1 ч. 46 м.
Вид битрейта : Постоянный
Битрейт : 448 Кбит/сек
Каналы : 6 каналов
Расположение каналов : Front: L C R, Side: L R, LFE
Частота : 48,0 КГц
Битовая глубина : 16 бит
Метод сжатия : С потерями
Размер потока : 343 Мбайт (4%)
Заголовок : Оригинал
Язык : English
Default : Нет
Forced : Нет

Текст #1
Идентификатор : 4
Формат : UTF-8
Идентификатор кодека : S_TEXT/UTF8
Идентификатор кодека/Информация : UTF-8 Plain Text
Язык : Russian
Default : Нет
Forced : Нет

Текст #2
Идентификатор : 5
Формат : UTF-8
Идентификатор кодека : S_TEXT/UTF8
Идентификатор кодека/Информация : UTF-8 Plain Text
Язык : English
Default : Нет
Forced : Нет

Меню
00:00:00.000 : :Chapter 1
00:04:48.875 : :Chapter 2
00:10:10.041 : :Chapter 3
00:15:29.790 : :Chapter 4
00:20:28.998 : :Chapter 5
00:25:27.248 : :Chapter 6
00:30:42.580 : :Chapter 7
00:36:55.788 : :Chapter 8
00:43:28.329 : :Chapter 9
00:46:59.954 : :Chapter 10
00:50:43.203 : :Chapter 11
00:54:29.995 : :Chapter 12
01:00:27.578 : :Chapter 13
01:07:21.660 : :Chapter 14
01:12:32.243 : :Chapter 15
01:17:49.076 : :Chapter 16
01:23:56.534 : :Chapter 17
01:29:19.825 : :Chapter 18
01:36:45.657 : :Chapter 19
01:41:17.990 : :Chapter 20
загрузка...
Правила, инструкции, FAQ!!!
Торрент  Добавлен [17 дек 2013, 23:00] Скачать торрент
Скачать торрент
[ Размер 39.25 КБ / Просмотров 7 ]

Статус  
 
Размер  7.76 ГБ
Приватный: Нет (DHT включён)
.torrent скачан  0
Как залить торрент? | Как скачать Torrent? | Как смотреть и слушать онлайн?  


     Отправить личное сообщение
   
Страница 1 из 1
Показать сообщения за:  Поле сортировки  
Начать новую тему Ответить на тему

   Похожие торренты   Автор   Ответы   Просмотры   Последнее сообщение 
В этой теме нет новых непрочитанных сообщений. Скачать торрент Залечь на дно в Брюгге / Однажды в Брюгге / In Bruges (Мартин МакДонах / Martin McDonagh) [2008, криминал, комедия, BDRip]

в форуме Криминал, Размер: 1.99 ГБ, Здоровье: 100%

Anonymous

0
52|17

53
0

19 фев 2014, 09:54

Anonymous Перейти к последнему сообщению

В этой теме нет новых непрочитанных сообщений. Скачать торрент Проверен Залечь на дно в Брюгге / In Bruges (2008) BDRip 720p

в форуме 720p | 1080p, Размер: 3.28 ГБ, Здоровье: 100%

Anonymous

0
112|0

23
430

15 авг 2014, 10:24

Anonymous Перейти к последнему сообщению

В этой теме нет новых непрочитанных сообщений. Скачать торрент В Брюгге / Залечь на дно в Брюгге / In Bruges (Мартин МакДонах / Martin McDonagh) [2008 г., трагикомедия, криминал, HDRip]

в форуме Криминал, Размер: 1.56 ГБ, Здоровье: 100%

Anonymous

0
56|19

72
0

02 апр 2014, 12:09

Anonymous Перейти к последнему сообщению

В этой теме нет новых непрочитанных сообщений. Скачать торрент Залечь на дно в Брюгге / In Bruges (Мартин МакДона / Martin McDonagh) [2007 г., Великобритания, США, Триллер, Драма, Комедия, HDRip] AVO (Карповский)

в форуме Триллеры, Размер: 1.45 ГБ, Здоровье: 100%

Anonymous

0
75|0

36
0

15 апр 2014, 08:20

Anonymous Перейти к последнему сообщению

В этой теме нет новых непрочитанных сообщений. Скачать торрент 10 000 лет до н.э. / 10,000 BC (2008) BDRip 1080p | Лицензия

в форуме 720p | 1080p, Размер: 6.71 ГБ, Здоровье: 0%

Anonymous

0
0|0

111
0

09 фев 2014, 21:02

Anonymous Перейти к последнему сообщению



Сейчас этот форум просматривают: нет зарегистрированных пользователей и гости: 2


Вы не можете начинать темы
Вы не можете отвечать на сообщения
Вы не можете редактировать свои сообщения
Вы не можете удалять свои сообщения
Вы не можете добавлять вложения

Перейти:  

!ВНИМАНИЕ!
 Ресурс не предоставляет электронные версии произведений, а занимается лишь коллекционированием и каталогизацией ссылок, присылаемых и публикуемых на форуме нашими читателями. Если вы являетесь правообладателем какого-либо представленного материала и не желаете чтобы ссылка на него находилась в нашем каталоге, свяжитесь с нами и мы незамедлительно удалим её. Файлы для обмена на трекере предоставлены пользователями сайта, и администрация не несёт ответственности за их содержание. Просьба не заливать файлы, защищенные авторскими правами, а также файлы нелегального содержания!