На всех торрентах на трекере установлена скидка на скачивание в размере 100 процентов(а).
 Возможность скачивания торрента НЕ зависит от ограничений при низком ратио, низком аплоаде, требуемом ратио или требуемом аплоаде.


Начать новую тему Ответить на тему
Статистика раздачи
Размер: 13.26 ГБ | Добавлен: 16 дек 2013, 00:10 | Скачали: 0
Сидеров: 0  [0 байт/сек]    Личеров: 0  [0 байт/сек]
Пред. тема | След. тема 

Автор
Сообщение

СообщениеДобавлено: 16 дек 2013, 00:10 

Гагарин. Первый в космосе (2013) BDRip [1080p]

Год выпуска: 2013
Производство: Россия
Жанр: драма, биография, история
Перевод: Не требуется

Дата мировой премьеры: 6 июня 2013
Дата российской премьеры: 6 июня 2013, «Централ Партнершип»
Дата выхода DVD релиза: 18 июля 2013, «CD Land»
Дата выхода релиза на Blu-Ray : 18 июля 2013, «CD Land»

Режиссер: Павел Пархоменко
Продюсер: Олег Капанец, Дмитрий Мурин, Энтони Уоллер
Актеры: Ярослав Жалнин, Михаил Филиппов, Владимир Стеклов, Ольга Иванова, Вадим Мичман, Даниил Воробьев, Надежда Маркина, Виктор Проскурин, Инга Стрелкова-Оболдина, Сергей Калашников

Описание фильма:
Фильм посвящен первым шагам человечества на пути освоения космоса и непосредственно судьбе первого космонавта Ю. А. Гагарина. Основной лейтмотив — борьба за право быть первым: соревнование в первом отряде космонавтов; конкуренция технологий в ракетостроении; противостояние сверхдержав — СССР и США.

В первый отряд космонавтов отбирали из трёх тысяч летчиков-истребителей по всей стране. В легендарную двадцатку попали лучшие из лучших. Кто из них полетит первым, не знал никто. На этом пути пришлось бороться не только с земным притяжением…



Продолжительность: 01:48:10
Качество видео: BDRip [1080p]

Видео: AVC, 1920x1080 (16:9), 25.000 fps, 16.1 Mbps (0.310 bit/pixel)
Аудио: Russian: 48 kHz, DTS, 3/2 (L,C,R,l,r) + LFE ch, ~1510.00 kbps avg
Код:
Код:
Format                         : Matroska
Format version                 : Version 2
File size                      : 13.3 GiB
Duration                       : 1h 48mn
Overall bit rate               : 17.6 Mbps
Movie name                     : Гагарин. Первый в космосе (2013) - Release for HDCLUB
Encoded date                   : UTC 2013-12-13 10:03:23
Writing application            : mkvmerge v5.7.0 ('The Whirlwind') built on Jul  8 2012 20:08:51
Writing library                : libebml v1.2.3 + libmatroska v1.3.0

Video
ID                             : 1
Format                         : AVC
Format/Info                    : Advanced Video Codec
Format profile                 :
Format settings, CABAC         : Yes
Format settings, ReFrames      : 4 frames
Codec ID                       : V_MPEG4/ISO/AVC
Duration                       : 1h 48mn
Bit rate                       : 16.1 Mbps
Width                          : 1 920 pixels
Height                         : 1 080 pixels
Display aspect ratio           : 16:9
Frame rate mode                : Constant
Frame rate                     : 25.000 fps
Color space                    : YUV
Chroma subsampling             : 4:2:0
Bit depth                      : 8 bits
Scan type                      : Progressive
Bits/(Pixel*Frame)             : 0.310
Stream size                    : 11.9 GiB (89%)
Writing library                : x264 core 130 r2273 b3065e6
Encoding settings              : cabac=1 / ref=4 / deblock=1:-3:-3 / analyse=0x3:0x133 / me=umh / subme=11 / psy=1 / psy_rd=1.05:0.00 / mixed_ref=1 / me_range=48 / chroma_me=1 / trellis=2 / 8x8dct=1 / cqm=0 / deadzone=21,11 / fast_pskip=0 / chroma_qp_offset=-2 / threads=12 / lookahead_threads=2 / sliced_threads=0 / nr=0 / decimate=1 / interlaced=0 / bluray_compat=0 / constrained_intra=0 / bframes=9 / b_pyramid=2 / b_adapt=2 / b_bias=0 / direct=3 / weightb=1 / open_gop=0 / weightp=2 / keyint=250 / keyint_min=23 / scenecut=40 / intra_refresh=0 / rc_lookahead=40 / rc=2pass / mbtree=0 / bitrate=16051 / ratetol=1.0 / qcomp=0.60 / qpmin=0 / qpmax=69 / qpstep=4 / cplxblur=20.0 / qblur=0.5 / vbv_maxrate=62500 / vbv_bufsize=78125 / nal_hrd=none / ip_ratio=1.40 / pb_ratio=1.30 / aq=1:0.80
Language                       : Russian
Default                        : Yes
Forced                         : No

Audio
ID                             : 2
Format                         : DTS
Format/Info                    : Digital Theater Systems
Mode                           : 16
Format settings, Endianness    : Big
Codec ID                       : A_DTS
Duration                       : 1h 48mn
Bit rate mode                  : Constant
Bit rate                       : 1 509 Kbps
Channel count                  : 6 channels
Channel positions              : Front: L C R, Side: L R, LFE
Sampling rate                  : 48.0 KHz
Bit depth                      : 16 bits
Compression mode               : Lossy
Stream size                    : 1.14 GiB (9%)
Language                       : Russian
Default                        : Yes
Forced                         : No

Menu
00:00:00.000                   : :00:00:00.000
00:08:32.880                   : :00:08:32.880
00:19:21.240                   : :00:19:21.240
00:28:46.560                   : :00:28:46.560
00:41:21.200                   : :00:41:21.200
00:50:17.600                   : :00:50:17.600
00:59:30.880                   : :00:59:30.880
01:08:02.400                   : :01:08:02.400
01:14:33.320                   : :01:14:33.320
01:28:30.840                   : :01:28:30.840
01:34:35.880                   : :01:34:35.880
01:43:30.360                   : :01:43:30.360

Скриншоты:

загрузка...
Правила, инструкции, FAQ!!!
Торрент  Добавлен [16 дек 2013, 00:10] Скачать торрент
Скачать торрент
[ Размер 33.88 КБ / Просмотров 9 ]

Статус  
 
Размер  13.26 ГБ
Приватный: Нет (DHT включён)
.torrent скачан  0
Как залить торрент? | Как скачать Torrent? | Как смотреть и слушать онлайн?  


     Отправить личное сообщение
   
Страница 1 из 1
Показать сообщения за:  Поле сортировки  
Начать новую тему Ответить на тему

   Похожие торренты   Автор   Ответы   Просмотры   Последнее сообщение 
В этой теме нет новых непрочитанных сообщений. Скачать торрент Гагарин. Первый в космосе (2013) BDRip [H.264]

в форуме 720p | 1080p, Размер: 2.18 ГБ, Здоровье: 0%

Anonymous

0
0|0

23
0

16 дек 2013, 00:17

Anonymous Перейти к последнему сообщению

В этой теме нет новых непрочитанных сообщений. Скачать торрент Проверен (Rock / Fank / Reggae) Ансамбль Гагарин - "Первый башкирский космонавт" - 2010, MP3, 320 kbps

в форуме Русский Рок, Размер: 138.56 МБ, Здоровье: 0%

Anonymous

0
0|0

0
0

21 авг 2016, 07:59

Anonymous Перейти к последнему сообщению

В этой теме нет новых непрочитанных сообщений. Скачать торрент Проверен Первый мститель: Другая война / Captain America: The Winter Soldier (2014) BDRip 1080p от Ash61 | 3D-Video | halfOU

в форуме HD-Video в 3D, Размер: 8.93 ГБ, Здоровье: 100%

Anonymous

0
286|17

82
12873

02 авг 2014, 10:44

Anonymous Перейти к последнему сообщению

В этой теме нет новых непрочитанных сообщений. Скачать торрент Джо / Jo [S01] (2013) BDRip | Первый канал

в форуме Зарубежные сериалы, Размер: 4.29 ГБ, Здоровье: 100%

Anonymous

0
18|1

64
55

15 янв 2014, 14:00

Anonymous Перейти к последнему сообщению

В этой теме нет новых непрочитанных сообщений. Скачать торрент Проверен Книжные серии "Люди в космосе" и "Первые в космосе" [2011-2012] [FB2]

в форуме Научно-популярная лит-ра, Размер: 20.61 МБ, Здоровье: ???%

Anonymous

0
0|11

47
1

28 июн 2014, 23:57

Anonymous Перейти к последнему сообщению



Сейчас этот форум просматривают: нет зарегистрированных пользователей и гости: 1


Вы не можете начинать темы
Вы не можете отвечать на сообщения
Вы не можете редактировать свои сообщения
Вы не можете удалять свои сообщения
Вы не можете добавлять вложения

Перейти:  

!ВНИМАНИЕ!
 Ресурс не предоставляет электронные версии произведений, а занимается лишь коллекционированием и каталогизацией ссылок, присылаемых и публикуемых на форуме нашими читателями. Если вы являетесь правообладателем какого-либо представленного материала и не желаете чтобы ссылка на него находилась в нашем каталоге, свяжитесь с нами и мы незамедлительно удалим её. Файлы для обмена на трекере предоставлены пользователями сайта, и администрация не несёт ответственности за их содержание. Просьба не заливать файлы, защищенные авторскими правами, а также файлы нелегального содержания!