На всех торрентах на трекере установлена скидка на скачивание в размере 100 процентов(а).
 Возможность скачивания торрента НЕ зависит от ограничений при низком ратио, низком аплоаде, требуемом ратио или требуемом аплоаде.


Начать новую тему Ответить на тему
Статистика раздачи
Размер: 4.2 ГБ | Добавлен: 14 дек 2013, 21:10 | Скачали: 0
Сидеров: 0  [0 байт/сек]    Личеров: 0  [0 байт/сек]
Пред. тема | След. тема 

Автор
Сообщение

СообщениеДобавлено: 14 дек 2013, 21:10 

Мистер Судьба / Mr. Destiny (1990) WEB-DL [720p]

Год выпуска: 1990
Жанр: Комедия

Описание фильма:
У простого служащего Ларри ломается машина. Он останавливается у придорожного кафе и в ожидании помощи решает пропустить стаканчик. Ларри жалуется бармену на свою неудавшуюся жизнь: если бы все сложилось иначе...

Таинственный человек за стойкой молча выслушал его историю. С этого момента судьба Ларри полностью изменилась. Теперь он - один из управляющих преуспевающей фирмы, у него роскошные автомобили и красавица жена. У счастливчика осталось только одно желание... вернуться в прошлое.

Режиссер: Джеймс Орр
Актеры: Джеймс Белуши, Линда Хэмилтон, Майкл Кейн, Джон Ловиц, Рене Руссо, Кортни Кокс, Харт Бокнер, Билл МакКачон, Джей О. Сэндерс, Мори Чайкин

Продолжительность: 01:50:28
Качество видео: WEB-DL [720p]
Перевод: Профессиональный, многоголосный закадровый, Двухголосый закадровый - R5, Одноголосый закадровый
Релиз группа:
Язык субтитров: English, English SDH, Russian
Вид субтитров: Вшитые отключаемые



Дата мировой премьеры: 12 октября 1990
Дата российской премьеры: -
Дата выхода DVD релиза: 28 июня 2011, «Уолт Дисней Компани СНГ»

Видео: 1280x690 at 23.976 fps, MPEG-4 AVC, ~4095 kbps avg
Аудио#1: English: 48 kHz, AC3, 3/2 (L,C,R,l,r) + LFE ch, ~384 kbps avg |iTunes|
Аудио#2: English: 48 kHz, AC3, 2/0 (L,R) ch, ~192 kbps avg |R1|
Аудио#3: Russian: 48 kHz, AC3, 2/0 (L,R) ch, ~192 kbps avg |Двухголосый закадровый, R5|
Аудио#4: Russian: 48 kHz, AC3, 2/0 (L,R) ch, ~192 kbps avg |Многоголосый закадровый, СТС/ТВЦ|
Аудио#5: Russian: 48 kHz, AC3, 3/2 (L,C,R,l,r) + LFE ch, ~384 kbps avg |Одноголосый закадровый, Михалев|
Код:
Код:
Формат                                   : Matroska
Версия формата                           : Version 2
Размер файла                             : 4,20 Гбайт
Продолжительность                        : 1 ч. 50 м.
Общий поток                              : 5442 Кбит/сек
Дата кодирования                         : UTC 2013-12-06 21:19:36
Программа кодирования                    : mkvmerge v5.8.0 ('No Sleep / Pillow') built on Sep  2 2012 15:37:04
Библиотека кодирования                   : libebml v1.2.3 + libmatroska v1.3.0

Видео
Идентификатор                            : 1
Формат                                   : AVC
Формат/Информация                        : Advanced Video Codec
Профиль формата                          :
Параметр CABAC формата                   : Нет
Параметр ReFrames формата                : 2 кадра
Идентификатор кодека                     : V_MPEG4/ISO/AVC
Продолжительность                        : 1 ч. 50 м.
Битрейт                                  : 3989 Кбит/сек
Ширина                                   : 1280 пикселей
Высота                                   : 690 пикселей
Соотношение сторон                       : 1,85:1
Режим частоты кадров                     : Постоянный
Частота кадров                           : 23,976 кадра/сек
Цветовое пространство                    : YUV
Субдискретизация насыщенности            : 4:2:0
Битовая глубина                          : 8 бит
Тип развёртки                            : Прогрессивная
Бит/(Пиксели*Кадры)                      : 0.188
Размер потока                            : 3,08 Гбайт (73%)
Язык                                     : English
Default                                  : Да
Forced                                   : Нет
Основные цвета                           : BT.709
Характеристики трансфера                 : BT.709
Коэффициенты матрицы                     : BT.709

Аудио #1
Идентификатор                            : 2
Формат                                   : AC-3
Формат/Информация                        : Audio Coding 3
Расширение режима                        : CM (complete main)
Параметр Endianness формата              : Big
Идентификатор кодека                     : A_AC3
Продолжительность                        : 1 ч. 50 м.
Вид битрейта                             : Постоянный
Битрейт                                  : 384 Кбит/сек
Каналы                                   : 6 каналов
Расположение каналов                     : Front: L C R, Side: L R, LFE
Частота                                  : 48,0 КГц
Битовая глубина                          : 16 бит
Метод сжатия                             : С потерями
Размер потока                            : 303 Мбайт (7%)
Заголовок                                : iTunes
Язык                                     : English
Default                                  : Нет
Forced                                   : Нет

Аудио #2
Идентификатор                            : 3
Формат                                   : AC-3
Формат/Информация                        : Audio Coding 3
Профиль формата                          : Dolby Digital
Расширение режима                        : CM (complete main)
Параметр Endianness формата              : Big
Идентификатор кодека                     : A_AC3
Продолжительность                        : 1 ч. 50 м.
Вид битрейта                             : Постоянный
Битрейт                                  : 192 Кбит/сек
Каналы                                   : 2 канала
Расположение каналов                     : Front: L R
Частота                                  : 48,0 КГц
Битовая глубина                          : 16 бит
Метод сжатия                             : С потерями
Размер потока                            : 152 Мбайт (4%)
Заголовок                                : R1
Язык                                     : English
Default                                  : Нет
Forced                                   : Нет

Аудио #3
Идентификатор                            : 4
Формат                                   : AC-3
Формат/Информация                        : Audio Coding 3
Расширение режима                        : CM (complete main)
Параметр Endianness формата              : Big
Идентификатор кодека                     : A_AC3
Продолжительность                        : 1 ч. 50 м.
Вид битрейта                             : Постоянный
Битрейт                                  : 192 Кбит/сек
Каналы                                   : 2 канала
Расположение каналов                     : Front: L R
Частота                                  : 48,0 КГц
Битовая глубина                          : 16 бит
Метод сжатия                             : С потерями
Размер потока                            : 152 Мбайт (4%)
Заголовок                                : DVO R5
Язык                                     : Russian
Default                                  : Нет
Forced                                   : Нет

Аудио #4
Идентификатор                            : 5
Формат                                   : AC-3
Формат/Информация                        : Audio Coding 3
Расширение режима                        : CM (complete main)
Параметр Endianness формата              : Big
Идентификатор кодека                     : A_AC3
Продолжительность                        : 1 ч. 50 м.
Вид битрейта                             : Постоянный
Битрейт                                  : 192 Кбит/сек
Каналы                                   : 2 канала
Расположение каналов                     : Front: L R
Частота                                  : 48,0 КГц
Битовая глубина                          : 16 бит
Метод сжатия                             : С потерями
Размер потока                            : 152 Мбайт (4%)
Заголовок                                : MVO СТС/ТВЦ
Язык                                     : Russian
Default                                  : Нет
Forced                                   : Нет

Аудио #5
Идентификатор                            : 6
Формат                                   : AC-3
Формат/Информация                        : Audio Coding 3
Расширение режима                        : CM (complete main)
Параметр Endianness формата              : Big
Идентификатор кодека                     : A_AC3
Продолжительность                        : 1 ч. 50 м.
Вид битрейта                             : Постоянный
Битрейт                                  : 384 Кбит/сек
Каналы                                   : 6 каналов
Расположение каналов                     : Front: L C R, Side: L R, LFE
Частота                                  : 48,0 КГц
Битовая глубина                          : 16 бит
Метод сжатия                             : С потерями
Размер потока                            : 303 Мбайт (7%)
Заголовок                                : Михалев
Язык                                     : Russian
Default                                  : Нет
Forced                                   : Нет

Текст #1
Идентификатор                            : 7
Формат                                   : UTF-8
Идентификатор кодека                     : S_TEXT/UTF8
Идентификатор кодека/Информация          : UTF-8 Plain Text
Язык                                     : English
Default                                  : Нет
Forced                                   : Нет

Текст #2
Идентификатор                            : 8
Формат                                   : UTF-8
Идентификатор кодека                     : S_TEXT/UTF8
Идентификатор кодека/Информация          : UTF-8 Plain Text
Заголовок                                : SDH
Язык                                     : English
Default                                  : Нет
Forced                                   : Нет

Текст #3
Идентификатор                            : 9
Формат                                   : UTF-8
Идентификатор кодека                     : S_TEXT/UTF8
Идентификатор кодека/Информация          : UTF-8 Plain Text
Язык                                     : Russian
Default                                  : Нет
Forced                                   : Нет

Меню
00:00:00.000                             : en:Mr. Destiny
00:13:17.000                             : en:Lose Something, Burrows?
00:21:03.000                             : en:Spilt Milk
00:29:52.000                             : en:Welcome to Your New Life
00:41:14.000                             : en:Happy Birthday L.J.
00:48:44.000                             : en:Tee Time
00:59:32.000                             : en:..But L.J.
01:09:51.000                             : en:What Was The Song?
01:22:52.000                             : en:Larry, Who Is She?
01:29:49.000                             : en:Don't Sign, Mr. Hansen
01:39:46.000                             : en:Happy Birthday, Larry
01:44:27.000                             : en:End Credits

Скриншоты:

загрузка...
Правила, инструкции, FAQ!!!
Торрент  Добавлен [14 дек 2013, 21:10] Скачать торрент
Скачать торрент
[ Размер 11.22 КБ / Просмотров 5 ]

Статус  
 
Размер  4.2 ГБ
Приватный: Нет (DHT включён)
.torrent скачан  0
Как залить торрент? | Как скачать Torrent? | Как смотреть и слушать онлайн?  


     Отправить личное сообщение
   
Страница 1 из 1
Показать сообщения за:  Поле сортировки  
Начать новую тему Ответить на тему

   Похожие торренты   Автор   Ответы   Просмотры   Последнее сообщение 
В этой теме нет новых непрочитанных сообщений. Скачать торрент Мистер Судьба / Повороты судьбы / Мистер Дестини / Mr. Destiny (1990) DVDRip

в форуме Комедии, Размер: 2.25 ГБ, Здоровье: 100%

Anonymous

0
2|0

42
1

14 дек 2013, 21:16

Anonymous Перейти к последнему сообщению

В этой теме нет новых непрочитанных сообщений. Скачать торрент Мистер пип / Mr. Pip (2012) BDRip 720p | L

в форуме 720p | 1080p, Размер: 5.85 ГБ, Здоровье: 100%

Anonymous

0
11|1

19
205

14 апр 2014, 21:06

Anonymous Перейти к последнему сообщению

В этой теме нет новых непрочитанных сообщений. Скачать торрент Проверен Мистер Холмс / Mr. Holmes (2015) BDRip 720p | iTunes, A

в форуме 720p | 1080p, Размер: 6.81 ГБ, Здоровье: 94%

Гость

0
150|159

114
148

24 мар 2016, 22:31

Гость Перейти к последнему сообщению

В этой теме нет новых непрочитанных сообщений. Скачать торрент Талантливый мистер Рипли / The Talented mr. Ripley (1999) BDRip 720p

в форуме 720p | 1080p, Размер: 7.76 ГБ, Здоровье: 0%

Anonymous

0
0|0

23
0

02 фев 2014, 11:49

Anonymous Перейти к последнему сообщению

В этой теме нет новых непрочитанных сообщений. Скачать торрент Мистер и миссис Смит / Mr. & Mrs. Smith (2005) BDRip 720p | Director's Cut | P, P2, A

в форуме 720p | 1080p, Размер: 4.31 ГБ, Здоровье: 0%

Anonymous

0
0|0

23
0

15 фев 2014, 17:33

Anonymous Перейти к последнему сообщению



Сейчас этот форум просматривают: нет зарегистрированных пользователей и гости: 2


Вы не можете начинать темы
Вы не можете отвечать на сообщения
Вы не можете редактировать свои сообщения
Вы не можете удалять свои сообщения
Вы не можете добавлять вложения

Перейти:  

!ВНИМАНИЕ!
 Ресурс не предоставляет электронные версии произведений, а занимается лишь коллекционированием и каталогизацией ссылок, присылаемых и публикуемых на форуме нашими читателями. Если вы являетесь правообладателем какого-либо представленного материала и не желаете чтобы ссылка на него находилась в нашем каталоге, свяжитесь с нами и мы незамедлительно удалим её. Файлы для обмена на трекере предоставлены пользователями сайта, и администрация не несёт ответственности за их содержание. Просьба не заливать файлы, защищенные авторскими правами, а также файлы нелегального содержания!