На всех торрентах на трекере установлена скидка на скачивание в размере 100 процентов(а).
 Возможность скачивания торрента НЕ зависит от ограничений при низком ратио, низком аплоаде, требуемом ратио или требуемом аплоаде.


Начать новую тему Ответить на тему
Статистика раздачи
Размер: 4.69 ГБ | Добавлен: 12 дек 2013, 18:30 | Скачали: 0
Сидеров: 0  [0 байт/сек]    Личеров: 0  [0 байт/сек]
Пред. тема | След. тема 

Автор
Сообщение

СообщениеДобавлено: 12 дек 2013, 18:30 

Название: Запятнанная репутация
Оригинальное название: The Human Stain
Год выпуска: 2003
Жанр: Драма, мелодрама
Выпущено: США, Германия, Франция, Cinepsilon, Cinerenta Medienbeteiligungs KG, Lakeshore Entertainment, Miramax Films, Stone Village Productions
Режиссер: Роберт Бентон

В ролях: Энтони Хопкинс, Николь Кидман, Эд Харрис, Гэри Синиз, Вентворт Миллер, Джасинда Бэрретт, Гарри Дж. Ленникс, Кларк Грегг, Анна Дивер Смит, Лизэн Митчел, Керри Вашингтон, Филлис Ньюман, Марго Мартиндейл, Рон Кэнада, Мили Авитал, Дэнни Бланко, Кристен Блевинс, Энн Дудек, Мими Кузык, Джон Финн, Джессика Уинтерстерн, Джефф Перри, Рик Снайдер, Дэнни Стоун, Вито Филлипо, Роберт Хигден, Власта Врана, Ричард Мэйв, Том Рэк, Билл Роуэт

О фильме: Немолодой профессор более 50 лет скрывал от своих близких страшный секрет. Случайный роман с молодой служанкой становится толчком для расследования прошлой жизни. Грязные тайны прошедших дней врываются в настоящее, сметая всё на своём пути…

Качество: BDRip 720p
Видео: MPEG-4 AVC, 3862 Kбит/с, 1280x542
Аудио: Русский, английский (AC3, 6 ch, 448 Кбит/с)

Продолжительность: 01:47:46
Перевод: Дублированный, профессиональный двухголосый (DDV), авторский (Евгений Рудой, Юрий Сербин)
Субтитры: Русские, английские




Общее
Уникальный идентификатор : 226105015260636320189838642839729584758 (0xAA1A3DF0375CD25B9D159F5C6455BA76)
Полное имя : E:VideoZapjatnannaja.reputacija.2003.x264.BDRip.720p.mkv
Формат : Matroska
Версия формата : Version 4 / Version 2
Размер файла : 4,69 Гбайт
Продолжительность : 1 ч. 47 м.
Общий поток : 6226 Кбит/сек
Название фильма : Запятнанная репутация / The Human Stain / 2003 / BDRip -- STarankov
Дата кодирования : UTC 2013-12-12 01:17:34
Программа кодирования : mkvmerge v6.6.0 ('The Edge Of The In Between') built on Dec 1 2013 17:55:00
Библиотека кодирования : libebml v1.3.0 + libmatroska v1.4.1

Видео
Идентификатор : 1
Формат : AVC
Формат/Информация : Advanced Video Codec
Профиль формата : High@L4.1
Параметр CABAC формата : Да
Параметр ReFrames формата : 11 кадров
Идентификатор кодека : V_MPEG4/ISO/AVC
Продолжительность : 1 ч. 47 м.
Битрейт : 3862 Кбит/сек
Ширина : 1280 пикселей
Высота : 542 пикселя
Соотношение сторон : 2,35:1
Режим частоты кадров : Постоянный
Частота кадров : 23,976 кадра/сек
Цветовое пространство : YUV
Субдискретизация насыщенности : 4:2:0
Битовая глубина : 8 бит
Тип развёртки : Прогрессивная
Бит/(Пиксели*Кадры) : 0.232
Размер потока : 2,91 Гбайт (62%)
Библиотека кодирования : x264 core 138 r2358 9e941d1
Настройки программы : cabac=1 / ref=11 / deblock=1:-3:-3 / analyse=0x3:0x113 / me=umh / subme=10 / psy=1 / psy_rd=1.00:0.15 / mixed_ref=1 / me_range=24 / chroma_me=1 / trellis=2 / 8x8dct=1 / cqm=0 / deadzone=21,11 / fast_pskip=0 / chroma_qp_offset=-3 / threads=6 / lookahead_threads=1 / sliced_threads=0 / nr=0 / decimate=1 / interlaced=0 / bluray_compat=0 / constrained_intra=0 / bframes=8 / b_pyramid=2 / b_adapt=2 / b_bias=0 / direct=1 / weightb=1 / open_gop=0 / weightp=2 / keyint=230 / keyint_min=23 / scenecut=40 / intra_refresh=0 / rc_lookahead=40 / rc=crf / mbtree=0 / crf=18.5 / qcomp=0.60 / qpmin=0 / qpmax=69 / qpstep=4 / vbv_maxrate=50000 / vbv_bufsize=62500 / crf_max=0.0 / nal_hrd=none / ip_ratio=1.40 / pb_ratio=1.30 / aq=1:1.00
Язык : English
Default : Да
Forced : Нет

Аудио #1
Идентификатор : 2
Формат : AC-3
Формат/Информация : Audio Coding 3
Расширение режима : CM (complete main)
Параметр Endianness формата : Big
Идентификатор кодека : A_AC3
Продолжительность : 1 ч. 47 м.
Вид битрейта : Постоянный
Битрейт : 448 Кбит/сек
Каналы : 6 каналов
Расположение каналов : Front: L C R, Side: L R, LFE
Частота : 48,0 КГц
Битовая глубина : 16 бит
Метод сжатия : С потерями
Размер потока : 345 Мбайт (7%)
Заголовок : DUB
Язык : Russian
Default : Да
Forced : Нет

Аудио #2
Идентификатор : 3
Формат : AC-3
Формат/Информация : Audio Coding 3
Расширение режима : CM (complete main)
Параметр Endianness формата : Big
Идентификатор кодека : A_AC3
Продолжительность : 1 ч. 47 м.
Вид битрейта : Постоянный
Битрейт : 448 Кбит/сек
Каналы : 6 каналов
Расположение каналов : Front: L C R, Side: L R, LFE
Частота : 48,0 КГц
Битовая глубина : 16 бит
Метод сжатия : С потерями
Размер потока : 345 Мбайт (7%)
Заголовок : DVO (DDV)
Язык : Russian
Default : Нет
Forced : Нет

Аудио #3
Идентификатор : 4
Формат : AC-3
Формат/Информация : Audio Coding 3
Расширение режима : CM (complete main)
Параметр Endianness формата : Big
Идентификатор кодека : A_AC3
Продолжительность : 1 ч. 47 м.
Вид битрейта : Постоянный
Битрейт : 448 Кбит/сек
Каналы : 6 каналов
Расположение каналов : Front: L C R, Side: L R, LFE
Частота : 48,0 КГц
Битовая глубина : 16 бит
Метод сжатия : С потерями
Размер потока : 345 Мбайт (7%)
Заголовок : AVO (Евгений Рудой)
Язык : Russian
Default : Нет
Forced : Нет

Аудио #4
Идентификатор : 5
Формат : AC-3
Формат/Информация : Audio Coding 3
Расширение режима : CM (complete main)
Параметр Endianness формата : Big
Идентификатор кодека : A_AC3
Продолжительность : 1 ч. 47 м.
Вид битрейта : Постоянный
Битрейт : 448 Кбит/сек
Каналы : 6 каналов
Расположение каналов : Front: L C R, Side: L R, LFE
Частота : 48,0 КГц
Битовая глубина : 16 бит
Метод сжатия : С потерями
Размер потока : 345 Мбайт (7%)
Заголовок : AVO (Юрий Сербин)
Язык : Russian
Default : Нет
Forced : Нет

Аудио #5
Идентификатор : 6
Формат : AC-3
Формат/Информация : Audio Coding 3
Расширение режима : CM (complete main)
Параметр Endianness формата : Big
Идентификатор кодека : A_AC3
Продолжительность : 1 ч. 47 м.
Вид битрейта : Постоянный
Битрейт : 448 Кбит/сек
Каналы : 6 каналов
Расположение каналов : Front: L C R, Side: L R, LFE
Частота : 48,0 КГц
Битовая глубина : 16 бит
Метод сжатия : С потерями
Размер потока : 345 Мбайт (7%)
Заголовок : Original
Язык : English
Default : Нет
Forced : Нет

Текст #1
Идентификатор : 7
Формат : UTF-8
Идентификатор кодека : S_TEXT/UTF8
Идентификатор кодека/Информация : UTF-8 Plain Text
Заголовок : русский
Язык : Russian
Default : Нет
Forced : Нет

Текст #2
Идентификатор : 8
Формат : UTF-8
Идентификатор кодека : S_TEXT/UTF8
Идентификатор кодека/Информация : UTF-8 Plain Text
Заголовок : английский
Default : Нет
Forced : Нет

---[Information] [11.12.2013 19:19:07] avs [info]: 1280x542p 1:1 @ 24000/1001 fps (cfr)
---[Information] [11.12.2013 19:19:07] x264 [info]: using SAR=1/1
---[Information] [11.12.2013 19:19:07] x264 [info]: using cpu capabilities: MMX2 SSE2Fast SSSE3 SSE4.2
---[Information] [11.12.2013 19:19:07] x264 [info]: profile High, level 4.1
---[Information] [12.12.2013 5:17:25] x264 [info]: frame I:1024 Avg QP:16.42 size: 84923
---[Information] [12.12.2013 5:17:25] x264 [info]: frame P:29356 Avg QP:17.79 size: 39806
---[Information] [12.12.2013 5:17:25] x264 [info]: frame B:124659 Avg QP:19.91 size: 15754
---[Information] [12.12.2013 5:17:25] x264 [info]: consecutive B-frames: 1.0% 0.8% 3.1% 14.9% 16.6% 49.4% 7.7% 3.3% 3.2%
---[Information] [12.12.2013 5:17:25] x264 [info]: mb I I16..4: 10.2% 78.0% 11.8%
---[Information] [12.12.2013 5:17:25] x264 [info]: mb P I16..4: 1.7% 21.5% 1.3% P16..4: 28.7% 23.1% 13.4% 0.0% 0.0% skip:10.4%
---[Information] [12.12.2013 5:17:25] x264 [info]: mb B I16..4: 0.2% 2.0% 0.1% B16..8: 36.4% 12.8% 3.5% direct:12.1% skip:32.9% L0:42.1% L1:39.8% BI:18.1%
---[Information] [12.12.2013 5:17:25] x264 [info]: 8x8 transform intra:86.2% inter:53.4%
---[Information] [12.12.2013 5:17:25] x264 [info]: coded y,uvDC,uvAC intra: 87.6% 84.6% 58.6% inter: 35.7% 31.4% 2.5%
---[Information] [12.12.2013 5:17:25] x264 [info]: i16 v,h,dc,p: 66% 12% 10% 11%
---[Information] [12.12.2013 5:17:25] x264 [info]: i8 v,h,dc,ddl,ddr,vr,hd,vl,hu: 12% 8% 17% 9% 11% 11% 9% 11% 11%
---[Information] [12.12.2013 5:17:25] x264 [info]: i4 v,h,dc,ddl,ddr,vr,hd,vl,hu: 15% 8% 8% 9% 14% 14% 11% 11% 10%
---[Information] [12.12.2013 5:17:25] x264 [info]: i8c dc,h,v,p: 44% 22% 20% 14%
---[Information] [12.12.2013 5:17:25] x264 [info]: Weighted P-Frames: Y:5.9% UV:2.4%
---[Information] [12.12.2013 5:17:25] x264 [info]: ref P L0: 37.6% 10.7% 21.2% 6.9% 6.9% 4.0% 4.3% 2.1% 2.4% 1.7% 2.0% 0.2% 0.0%
---[Information] [12.12.2013 5:17:25] x264 [info]: ref B L0: 71.2% 12.8% 5.5% 3.2% 2.2% 1.9% 1.4% 1.0% 0.6% 0.3%
---[Information] [12.12.2013 5:17:25] x264 [info]: ref B L1: 93.8% 6.2%
---[Information] [12.12.2013 5:17:25] x264 [info]: kb/s:3982.86
---[Information] [12.12.2013 5:17:25] encoded 155039 frames, 4.32 fps, 3982.86 kb/s
--[Information] [12.12.2013 5:17:26] Final statistics
---[Information] [12.12.2013 5:17:26] Constant Quality Mode: Quality 18 computed...
---[Information] [12.12.2013 5:17:26] Video Bitrate Obtained (approximate): 3984 kbit/s
--[Information] [12.12.2013 5:17:26] MediaInfo
---[Information] File: E:RipZapjatnannaja.reputacija.2003.x264.BDRipZapjatnannaja.reputacija.2003.x264.BDRip.720p.mkv


загрузка...
Правила, инструкции, FAQ!!!
Торрент  Добавлен [12 дек 2013, 18:30] Скачать торрент
Скачать торрент
[ Размер 23.9 КБ / Просмотров 8 ]

Статус  
 
Размер  4.69 ГБ
Приватный: Нет (DHT включён)
.torrent скачан  0
Как залить торрент? | Как скачать Torrent? | Как смотреть и слушать онлайн?  


     Отправить личное сообщение
   
Страница 1 из 1
Показать сообщения за:  Поле сортировки  
Начать новую тему Ответить на тему

   Похожие торренты   Автор   Ответы   Просмотры   Последнее сообщение 
В этой теме нет новых непрочитанных сообщений. Скачать торрент Запятнанная репутация / The Human Stain (2003) BDRip | D, P2, A

в форуме Драмы, Мелодрамы, Размер: 2.88 ГБ, Здоровье: 0%

Anonymous

0
0|0

20
0

12 дек 2013, 18:26

Anonymous Перейти к последнему сообщению

В этой теме нет новых непрочитанных сообщений. Скачать торрент Запятнанная репутация / The Human Stain (2003) HDRip | D

в форуме Драмы, Мелодрамы, Размер: 1.45 ГБ, Здоровье: 0%

Anonymous

0
0|0

16
0

12 янв 2014, 12:22

Anonymous Перейти к последнему сообщению

В этой теме нет новых непрочитанных сообщений. Скачать торрент Проверен (Hard Rock) Human Clay-Closing The Book On Human Clay - 2003, MP3 (tracks), 320 kbps

в форуме Classic Rock & Hard Rock, Размер: 233.12 МБ, Здоровье: 0%

Anonymous

0
0|0

0
0

14 ноя 2016, 20:58

Anonymous Перейти к последнему сообщению

В этой теме нет новых непрочитанных сообщений. Скачать торрент Проверен Готика / Gothika (2003) BDRip 720p

в форуме 720p | 1080p, Размер: 3.74 ГБ, Здоровье: 100%

Anonymous

0
24|1

30
557

06 авг 2014, 16:21

Anonymous Перейти к последнему сообщению

В этой теме нет новых непрочитанных сообщений. Скачать торрент Проверен Монстр / Monster (2003) BDRip [H.264/720p]

в форуме 720p | 1080p, Размер: 6.44 ГБ, Здоровье: 100%

Гость

0
38|8

90
18

03 апр 2015, 01:23

Гость Перейти к последнему сообщению



Сейчас этот форум просматривают: нет зарегистрированных пользователей и гости: 3


Вы не можете начинать темы
Вы не можете отвечать на сообщения
Вы не можете редактировать свои сообщения
Вы не можете удалять свои сообщения
Вы не можете добавлять вложения

Перейти:  

!ВНИМАНИЕ!
 Ресурс не предоставляет электронные версии произведений, а занимается лишь коллекционированием и каталогизацией ссылок, присылаемых и публикуемых на форуме нашими читателями. Если вы являетесь правообладателем какого-либо представленного материала и не желаете чтобы ссылка на него находилась в нашем каталоге, свяжитесь с нами и мы незамедлительно удалим её. Файлы для обмена на трекере предоставлены пользователями сайта, и администрация не несёт ответственности за их содержание. Просьба не заливать файлы, защищенные авторскими правами, а также файлы нелегального содержания!