На всех торрентах на трекере установлена скидка на скачивание в размере 100 процентов(а).
 Возможность скачивания торрента НЕ зависит от ограничений при низком ратио, низком аплоаде, требуемом ратио или требуемом аплоаде.


Начать новую тему Ответить на тему
Статистика раздачи
Размер: 1.45 ГБ | Добавлен: 12 дек 2013, 10:38 | Скачали: 27
Сидеров: 97  [0 байт/сек]    Личеров: 7  [0 байт/сек]
Пред. тема | След. тема 

Автор
Сообщение

СообщениеДобавлено: 12 дек 2013, 10:38 

Невидимая сторона / The Blind Side

«Based on the extraordinary true story»

Год выпуска: 2009
Страна: США
Жанр: драма, спорт
Продолжительность: 02:08:33
Перевод: Профессиональный (многоголосый, закадровый)
Русские субтитры: нет

Режиссер: Джон Ли Хэнкок / John Lee Hancock

В ролях: Сандра Баллок, Тим МакГроу, Куинтон Аарон, Джей Хед, Лили Коллинз, Рэй МакКиннон, Ким Диккенс, Адриан Ленокс, Кэти Бейтс, Катрин Дайер

Описание: Реальная история игрока в американский футбол команды Baltimore Ravens Майкла Оэра. Оставшийся без крова молодой афроамериканец взят под опеку зажиточной семьёй. Жизнь в новом окружении полностью меняет судьбу замкнутого подростка, помогает реализовать свой потенциал. Поступив в университет штата Миссисипи, он играет в студенческой команде и познаёт скрытую сторону спортивной игры, учится стратегии и тактическому анализу. Знание того, что в игре зачастую именно мозг побеждает мускулы, вскоре поможет попасть Майклу в профессиональную лигу.




Качество: HDRip-AVC
Формат: MKV
Видео кодек: H264
Аудио кодек: AC3
Видео: 832x464 (16:9), 23.976 fps, H264, 1 424 Kbps, 0.154 bit/pixel
Аудио: 48 kHz, AC3 Dolby Digital, 2/0 (L,R) ch, ~192.00 kbps avg



D:The.Blind.Side.2009.HDRip-AVC_by_dexter_lex.mkv
General
Unique ID : 239818977994696817076193455001951962831 (0xB46B74811F0660B08D868F8A95AE86CF)
Complete name : D:The.Blind.Side.2009.HDRip-AVC_by_dexter_lex.mkv
Format : Matroska
Format version : Version 2
File size : 1.45 GiB
Duration : 2h 8mn
Overall bit rate : 1 617 Kbps
Encoded date : UTC 2013-07-05 23:18:44
Writing application : mkvmerge v6.1.0 ('Old Devil') built on Mar 4 2013 09:10:42
Writing library : libebml v1.3.0 + libmatroska v1.4.0
Video #1
ID : 1
Format : AVC
Format/Info : Advanced Video Codec
Format profile : High@L4.1
Format settings, CABAC : Yes
Format settings, ReFrames : 4 frames
Codec ID : V_MPEG4/ISO/AVC
Duration : 2h 8mn
Bit rate : 1 424 Kbps
Width : 832 pixels
Height : 464 pixels
Display aspect ratio : 16:9
Frame rate : 23.976 fps
Color space : YUV
Chroma subsampling : 4:2:0
Bit depth : 8 bits
Scan type : Progressive
Bits/(Pixel*Frame) : 0.154
Stream size : 1.25 GiB (86%)
Writing library : x264 core 130 r2273 b3065e6
Encoding settings : cabac=1 / ref=11 / deblock=1:0:0 / analyse=0x3:0x113 / me=hex / subme=11 / psy=1 / psy_rd=1.00:0.10 / mixed_ref=1 / me_range=16 / chroma_me=1 / trellis=1 / 8x8dct=1 / cqm=0 / deadzone=21,11 / fast_pskip=1 / chroma_qp_offset=-3 / threads=6 / lookahead_threads=1 / sliced_threads=0 / nr=0 / decimate=1 / interlaced=0 / bluray_compat=0 / constrained_intra=0 / bframes=3 / b_pyramid=2 / b_adapt=1 / b_bias=0 / direct=1 / weightb=1 / open_gop=0 / weightp=2 / keyint=240 / keyint_min=23 / scenecut=40 / intra_refresh=0 / rc_lookahead=60 / rc=2pass / mbtree=1 / bitrate=1424 / ratetol=1.0 / qcomp=0.60 / qpmin=0 / qpmax=69 / qpstep=4 / cplxblur=20.0 / qblur=0.5 / ip_ratio=1.40 / aq=1:1.00
Default : Yes
Forced : No
Audio #2
ID : 2
Format : AC-3
Format/Info : Audio Coding 3
Mode extension : CM (complete main)
Codec ID : A_AC3
Duration : 2h 8mn
Bit rate mode : Constant
Bit rate : 192 Kbps
Channel(s) : 2 channels
Channel positions : Front: L R
Sampling rate : 48.0 KHz
Bit depth : 16 bits
Compression mode : Lossy
Stream size : 177 MiB (12%)
Default : Yes
Forced : No
загрузка...
Правила, инструкции, FAQ!!!
Торрент  Добавлен [12 дек 2013, 10:38] Скачать торрент
Скачать торрент
[ Размер 15.17 КБ / Просмотров 11 ]

Статус  
 
Размер  1.45 ГБ
Приватный: Нет (DHT включён)
.torrent скачан  27
Как залить торрент? | Как скачать Torrent? | Как смотреть и слушать онлайн?  


     Отправить личное сообщение
   
Страница 1 из 1
Показать сообщения за:  Поле сортировки  
Начать новую тему Ответить на тему

   Похожие торренты   Автор   Ответы   Просмотры   Последнее сообщение 
В этой теме нет новых непрочитанных сообщений. Скачать торрент Проверен Невидимая сторона / The Blind Side (2009) BDRip 720p

в форуме 720p | 1080p, Размер: 5.75 ГБ, Здоровье: 100%

Anonymous

0
124|38

84
106

05 апр 2015, 12:56

Anonymous Перейти к последнему сообщению

В этой теме нет новых непрочитанных сообщений. Скачать торрент Проверен [iPad] Невидимая сторона / The Blind Side (Джон Ли Хэнкок / John Lee Hancock) [2009 г., Драма, биография, спорт, BDRip] MVO (R5) + Original + Subs (Rus, Ukr, Eng)

в форуме Фильмы для iPod, iPhone, iPad, Размер: 2.81 ГБ, Здоровье: 100%

Гость

0
37|8

54
1

14 май 2015, 00:19

Гость Перейти к последнему сообщению

В этой теме нет новых непрочитанных сообщений. Скачать торрент Проверен [MP4] Гриффины: Что-то, что-то, что-то, тёмная сторона / Family Guy Presents: Something, Something, Something, Dark Side (Сет МакФарлейн)[2009 г., Мультфильм, Комедия, Пародия, DVDRip]

в форуме Видео для смартфонов и КПК, Размер: 251.88 МБ, Здоровье: 100%

Anonymous

0
1|1

51
0

25 окт 2014, 23:13

Anonymous Перейти к последнему сообщению

В этой теме нет новых непрочитанных сообщений. Скачать торрент Проверен (Female vocal / New Orleans / Funk / West Side Chicago Blues) Blind Freddy - Blind Freddy - 1995, FLAC (tracks+.cue), lossless

в форуме Blues (Texas, Chicago, Modern and Others), Размер: 369.72 МБ, Здоровье: 0%

Anonymous

0
0|0

1
0

15 окт 2016, 15:43

Anonymous Перейти к последнему сообщению

В этой теме нет новых непрочитанных сообщений. Скачать торрент Полтергейст 2: Обратная сторона / Poltergeist II: The Other Side (1986) BDRip

в форуме Ужасы, Размер: 1.45 ГБ, Здоровье: 100%

Anonymous

0
40|14

45
16

20 фев 2014, 21:58

Anonymous Перейти к последнему сообщению



Сейчас этот форум просматривают: нет зарегистрированных пользователей и гости: 1


Вы не можете начинать темы
Вы не можете отвечать на сообщения
Вы не можете редактировать свои сообщения
Вы не можете удалять свои сообщения
Вы не можете добавлять вложения

Перейти:  

!ВНИМАНИЕ!
 Ресурс не предоставляет электронные версии произведений, а занимается лишь коллекционированием и каталогизацией ссылок, присылаемых и публикуемых на форуме нашими читателями. Если вы являетесь правообладателем какого-либо представленного материала и не желаете чтобы ссылка на него находилась в нашем каталоге, свяжитесь с нами и мы незамедлительно удалим её. Файлы для обмена на трекере предоставлены пользователями сайта, и администрация не несёт ответственности за их содержание. Просьба не заливать файлы, защищенные авторскими правами, а также файлы нелегального содержания!