На всех торрентах на трекере установлена скидка на скачивание в размере 100 процентов(а).
 Возможность скачивания торрента НЕ зависит от ограничений при низком ратио, низком аплоаде, требуемом ратио или требуемом аплоаде.


Начать новую тему Ответить на тему
Статистика раздачи
Размер: 4.37 ГБ | Добавлен: 12 дек 2013, 10:31 | Скачали: 0
Сидеров: 0  [0 байт/сек]    Личеров: 0  [0 байт/сек]
Пред. тема | След. тема 

Автор
Сообщение

СообщениеДобавлено: 12 дек 2013, 10:31 

Название: В погоне за счастьем
Оригинальное название: The Pursuit of Happyness
Год выхода: 2006
Жанр: драма, биография

Режиссер: Габриэль Муччино

В ролях: Уилл Смит, Джейден Смит, Тэнди Ньютон, Брайан Хау, Джеймс Карен, Дэн Кастелланета, Курт Фуллер, Такайо Фишер, Кевин Уэст, Джордж Чунг

О фильме:
Крис Гарднер — отец одиночка. Воспитывая пятилетнего сына, Крис изо всех сил старается сделать так, чтобы ребенок рос счастливым. Работая продавцом, он не может оплатить квартиру, и их выселяют.
Оказавшись на улице, но не желая сдаваться, отец устраивается специалистом в брокерскую компанию. Только и там его доходы далеки от нормальных. Но Крис поклялся себе во чтобы то ни стало вырастить сына, и никакие трудности его не остановят.



Выпущено: США
Продолжительность: 01:57:27
Перевод: Дублированный


Кодек: x264
Качество: BDRip 1080p
Видео: 1920x800, 4692 Kbps, 23.976 fps
Звук: 48 kHz, AC3, 6c, 640 kbps
Cубтитры: русские, английские

General
Unique ID : 187753126555188249381915796116238520202 (0x8D3FEFD5F55ABE3080BB137F90884F8A)
Complete name : В погоне за счастьем.2006.BDRip.1080p.Rus.mkv
Format : Matroska
Format version : Version 2
File size : 4.37 GiB
Duration : 1h 57mn
Overall bit rate : 5 323 Kbps
Movie name : В погоне за счастьем.2006
Encoded date : UTC 2012-03-26 09:59:18
Writing application : mkvmerge v5.4.0 ('Piper') built on Mar 18 2012 18:22:43
Writing library : libebml v1.2.3 + libmatroska v1.3.0

Video
ID : 1
Format : AVC
Format/Info : Advanced Video Codec
Format profile : High@L4.1
Format settings, CABAC : Yes
Format settings, ReFrames : 5 frames
Codec ID : V_MPEG4/ISO/AVC
Duration : 1h 57mn
Bit rate : 4 692 Kbps
Width : 1 920 pixels
Height : 800 pixels
Display aspect ratio : 2.40:1
Frame rate : 23.976 fps
Color space : YUV
Chroma subsampling : 4:2:0
Bit depth : 8 bits
Scan type : Progressive
Bits/(Pixel*Frame) : 0.127
Stream size : 3.76 GiB (86%)
Title : Rip by Boriy
Writing library : x264 core 122 r2184 5c85e0a
Encoding settings : cabac=1 / ref=5 / deblock=1:0:0 / analyse=0x3:0x113 / me=umh / subme=10 / psy=1 / psy_rd=1.00:0.10 / mixed_ref=1 / me_range=32 / chroma_me=1 / trellis=2 / 8x8dct=1 / cqm=0 / deadzone=21,11 / fast_pskip=0 / chroma_qp_offset=-3 / threads=12 / sliced_threads=0 / nr=0 / decimate=1 / interlaced=0 / bluray_compat=0 / constrained_intra=0 / bframes=5 / b_pyramid=2 / b_adapt=2 / b_bias=0 / direct=3 / weightb=1 / open_gop=0 / weightp=2 / keyint=240 / keyint_min=24 / scenecut=40 / intra_refresh=0 / rc_lookahead=60 / rc=2pass / mbtree=1 / bitrate=4692 / ratetol=1.0 / qcomp=0.60 / qpmin=0 / qpmax=69 / qpstep=4 / cplxblur=20.0 / qblur=0.5 / ip_ratio=1.40 / aq=1:1.00
Language : English
Default : Yes
Forced : No

Audio
ID : 2
Format : AC-3
Format/Info : Audio Coding 3
Mode extension : CM (complete main)
Codec ID : A_AC3
Duration : 1h 57mn
Bit rate mode : Constant
Bit rate : 640 Kbps
Channel(s) : 6 channels
Channel positions : Front: L C R, Side: L R, LFE
Sampling rate : 48.0 KHz
Bit depth : 16 bits
Compression mode : Lossy
Stream size : 538 MiB (12%)
Title : Дубляж
Language : Russian
Default : Yes
Forced : No

Text #1
ID : 3
Format : UTF-8
Codec ID : S_TEXT/UTF8
Codec ID/Info : UTF-8 Plain Text
Language : Russian
Default : No
Forced : No

Text #2
ID : 4
Format : UTF-8
Codec ID : S_TEXT/UTF8
Codec ID/Info : UTF-8 Plain Text
Language : English
Default : No
Forced : No

Menu
00:00:00.000 : en:
00:05:09.017 : en:
00:12:36.255 : en:
00:22:25.552 : en:
00:28:09.896 : en:
00:33:33.928 : en:
00:41:18.434 : en:
00:48:15.517 : en:
00:55:49.512 : en:
01:02:17.233 : en:
01:09:20.364 : en:
01:17:49.456 : en:
01:24:34.235 : en:
01:33:57.298 : en:
01:41:19.239 : en:
01:48:30.128 : en:
загрузка...
Правила, инструкции, FAQ!!!
Торрент  Добавлен [12 дек 2013, 10:31] Скачать торрент
Скачать торрент
[ Размер 22.29 КБ / Просмотров 7 ]

Статус  
 
Размер  4.37 ГБ
Приватный: Нет (DHT включён)
.torrent скачан  0
Как залить торрент? | Как скачать Torrent? | Как смотреть и слушать онлайн?  


     Отправить личное сообщение
   
Страница 1 из 1
Показать сообщения за:  Поле сортировки  
Начать новую тему Ответить на тему

   Похожие торренты   Автор   Ответы   Просмотры   Последнее сообщение 
В этой теме нет новых непрочитанных сообщений. Скачать торрент В погоне за счастьем / The Pursuit of Happyness (Габриэле Муччино / Gabriele Muccino) [2006, драма, биография, BDRip] Dub

в форуме Драмы, Мелодрамы, Размер: 1.46 ГБ, Здоровье: 0%

Anonymous

0
0|0

14
0

04 фев 2014, 21:24

Anonymous Перейти к последнему сообщению

В этой теме нет новых непрочитанных сообщений. Скачать торрент В погоне за наследством / Было бы желание / Where There’s a Will (Джон Патч / John Putch) [2006, США, Комедия, драма, DVDRip] DVO телеканал Hallmark

в форуме Комедии, Размер: 1.46 ГБ, Здоровье: 100%

Anonymous

0
20|1

73
1

19 апр 2014, 18:51

Anonymous Перейти к последнему сообщению

В этой теме нет новых непрочитанных сообщений. Скачать торрент Проверен 300 спартанцев / 300 (2006) BDRip 1080p

в форуме 720p | 1080p, Размер: 7.76 ГБ, Здоровье: 100%

Anonymous

0
82|3

122
785

19 май 2014, 13:08

Anonymous Перейти к последнему сообщению

В этой теме нет новых непрочитанных сообщений. Скачать торрент Проверен Спасатель / The Guardian (2006) BDRip 1080p

в форуме 720p | 1080p, Размер: 7.95 ГБ, Здоровье: 100%

Anonymous

0
29|0

67
96

11 ноя 2014, 17:12

Anonymous Перейти к последнему сообщению

В этой теме нет новых непрочитанных сообщений. Скачать торрент Проверен Посейдон / Poseidon (2006) BDRip 1080p

в форуме 720p | 1080p, Размер: 10.01 ГБ, Здоровье: 100%

Anonymous

0
29|17

97
60

03 апр 2015, 00:04

Anonymous Перейти к последнему сообщению



Сейчас этот форум просматривают: нет зарегистрированных пользователей и гости: 2


Вы не можете начинать темы
Вы не можете отвечать на сообщения
Вы не можете редактировать свои сообщения
Вы не можете удалять свои сообщения
Вы не можете добавлять вложения

Перейти:  

!ВНИМАНИЕ!
 Ресурс не предоставляет электронные версии произведений, а занимается лишь коллекционированием и каталогизацией ссылок, присылаемых и публикуемых на форуме нашими читателями. Если вы являетесь правообладателем какого-либо представленного материала и не желаете чтобы ссылка на него находилась в нашем каталоге, свяжитесь с нами и мы незамедлительно удалим её. Файлы для обмена на трекере предоставлены пользователями сайта, и администрация не несёт ответственности за их содержание. Просьба не заливать файлы, защищенные авторскими правами, а также файлы нелегального содержания!