На всех торрентах на трекере установлена скидка на скачивание в размере 100 процентов(а).
 Возможность скачивания торрента НЕ зависит от ограничений при низком ратио, низком аплоаде, требуемом ратио или требуемом аплоаде.


Начать новую тему Ответить на тему
Статистика раздачи
Размер: 4.37 ГБ | Добавлен: 12 дек 2013, 09:00 | Скачали: 0
Сидеров: 0  [0 байт/сек]    Личеров: 0  [0 байт/сек]
Пред. тема | След. тема 

Автор
Сообщение

СообщениеДобавлено: 12 дек 2013, 09:00 

Название: Гарфилд 2: История двух кошечек
Оригинальное название: Garfield 2: A Tail of Two Kitties
Год выхода: 2006
Жанр: Комедия, семейный
Режиссер: Тим Хилл

В ролях: Брекин Мейер, Дженнифер Лав Хьюитт, Билли Коннолли, Билл Мюррэй, Йен Эберкромби, Роджер Рис, Люси Дэвис, Лена Кардвэлл, Вероника Алисино, Джейн Карр...

О фильме:
Гарфилд отправляется в Великобританию вслед за своим хозяином (Брекин Мейер), в планах которого – сделать предложение своей подруге (Дженнифер Лав Хьюитт). В Лондоне Гарфилда ждет приятный сюрприз – волею случая он меняется местами с королевским котом и оказывается окруженным небывалой роскошью и вниманием, в то время как настоящий Принц удивляет хозяев Гарфилда своими изысканными манерами. Принц недавно получил в наследство от скончавшейся леди Элеанор замок Карлайл, что привело в страшный гнев ее племянника, лорда Даргиса (Билли Коннолли). Став владельцем замка, Гарфилд начинает жить так, как и подобает английскому лорду. В его окружение входят - дворецкий Смити (Йен Эберкромби) и огромное множество слуг, а также бульдог Уинстон, шотландский заяц Макбанни, пенджабский хорек Найджел, испанский бык Болеро, мышонок Клавдий, цитирующий Шекспира, и французский гусь Кристоф.
Тем временем Принц живет, как простой смертный, посещая вместе с Джоном и Оди пабы и с удовольствием поедая лазанью, а лорд Даргис мечтает избавиться от кота унаследовавшего его замок …



Страна: США, Великобритания
Продолжительность: 01:25:48
Перевод: Дубляж


Кодек: H264
Качество: BDRip 1080p
Видео: 1920x1040, 6900 Kbps, 23,976 fps
Звук: 48 kHz, AC3, 6c, 384 kbps
Субтитры: Русские, Английские

Семпл



Общее
Формат : Matroska
Версия формата : Version 2
Размер файла : 4,37 Гбайт
Продолжительность : 1 ч. 25 м.
Общий поток : 7285 Кбит/сек
Название фильма : Garfield: A Tail of Two Kitties (2006) BDRip 1080p от Dimok
Дата кодирования : UTC 2012-03-30 20:05:50
Программа кодирования : mkvmerge v5.4.0 ('Piper') built on Mar 10 2012 13:34:39
Библиотека кодирования : libebml v1.2.3 + libmatroska v1.3.0

Видео
Идентификатор : 1
Формат : AVC
Формат/Информация : Advanced Video Codec
Профиль формата : High@L4.1
Параметр CABAC формата : Да
Параметр ReFrames формата : 4 кадра
Идентификатор кодека : V_MPEG4/ISO/AVC
Продолжительность : 1 ч. 25 м.
Битрейт : 6900 Кбит/сек
Ширина : 1920 пикселей
Высота : 1040 пикселей
Соотношение сторон : 16:9
Частота кадров : 23,976 кадра/сек
Цветовое пространство : YUV
Субдискретизация насыщенности : 4:2:0
Битовая глубина : 8 бит
Тип развёртки : Прогрессивная
Бит/(Пиксели*Кадры) : 0.144
Размер потока : 4,05 Гбайт (93%)
Библиотека кодирования : x264 core 120 r2164+656 2ff844c
Настройки программы : cabac=1 / ref=4 / deblock=1:0:0 / analyse=0x3:0x133 / me=umh / subme=10 / psy=1 / fade_compensate=0.00 / psy_rd=1.00:1.00 / mixed_ref=1 / me_range=32 / chroma_me=1 / trellis=2 / 8x8dct=1 / cqm=0 / deadzone=21,11 / fast_pskip=0 / chroma_qp_offset=-4 / threads=6 / sliced_threads=0 / nr=0 / decimate=1 / interlaced=0 / bluray_compat=0 / constrained_intra=0 / fgo=0 / bframes=6 / b_pyramid=2 / b_adapt=2 / b_bias=0 / direct=3 / weightb=1 / open_gop=0 / weightp=2 / keyint=240 / keyint_min=24 / scenecut=40 / intra_refresh=0 / rc_lookahead=65 / rc=2pass / mbtree=1 / bitrate=6900 / ratetol=1.0 / qcomp=0.70 / qpmin=0 / qpmax=69 / qpstep=4 / cplxblur=20.0 / qblur=0.5 / ip_ratio=1.40 / aq=2:1.00
Язык : English

Аудио
Идентификатор : 2
Формат : AC-3
Формат/Информация : Audio Coding 3
Расширение режима : CM (complete main)
Идентификатор кодека : A_AC3
Продолжительность : 1 ч. 25 м.
Вид битрейта : Постоянный
Битрейт : 384 Кбит/сек
Каналы : 6 каналов
Расположение каналов : Front: L C R, Side: L R, LFE
Частота : 48,0 КГц
Битовая глубина : 16 бит
Метод сжатия : С потерями
Размер потока : 236 Мбайт (5%)
Заголовок : Дубляж
Язык : Russian

Текст #1
Идентификатор : 3
Формат : UTF-8
Идентификатор кодека : S_TEXT/UTF8
Идентификатор кодека/Информация : UTF-8 Plain Text
Язык : Russian

Текст #2
Идентификатор : 4
Формат : UTF-8
Идентификатор кодека : S_TEXT/UTF8
Идентификатор кодека/Информация : UTF-8 Plain Text
Язык : English
загрузка...
Правила, инструкции, FAQ!!!
Торрент  Добавлен [12 дек 2013, 09:00] Скачать торрент
Скачать торрент
[ Размер 22.28 КБ / Просмотров 9 ]

Статус  
 
Размер  4.37 ГБ
Приватный: Нет (DHT включён)
.torrent скачан  0
Как залить торрент? | Как скачать Torrent? | Как смотреть и слушать онлайн?  


     Отправить личное сообщение
   
Страница 1 из 1
Показать сообщения за:  Поле сортировки  
Начать новую тему Ответить на тему

   Похожие торренты   Автор   Ответы   Просмотры   Последнее сообщение 
В этой теме нет новых непрочитанных сообщений. Скачать торрент Гарфилд / Garfield (2004) BDRip

в форуме Комедии, Размер: 1.71 ГБ, Здоровье: 0%

Anonymous

0
0|0

27
1

12 дек 2013, 08:56

Anonymous Перейти к последнему сообщению

В этой теме нет новых непрочитанных сообщений. Скачать торрент Гарфилд первоклассникам. Чтение [L] [RUS / RUS] (2006) [6-8]

в форуме Детские, Размер: 564.01 МБ, Здоровье: 100%

Anonymous

0
3|1

28
0

21 апр 2014, 07:49

Anonymous Перейти к последнему сообщению

В этой теме нет новых непрочитанных сообщений. Скачать торрент Рождественская история / A Christmas Carol (2009) [1080p] BDRip

в форуме 720p | 1080p, Размер: 5.89 ГБ, Здоровье: 100%

Anonymous

0
11|1

21
0

01 янв 2014, 01:13

Anonymous Перейти к последнему сообщению

В этой теме нет новых непрочитанных сообщений. Скачать торрент Проверен Космический спецназ Гарфилда 3Д / Garfield's Pet Force 3D (Марк А.З. Диппе / Mark A.Z. Dippé) [2009, комедия, семейный, мультфильм, BDremux 1080p] BD3D

в форуме 3D Мультфильмы, Размер: 17.73 ГБ, Здоровье: 0%

Anonymous

0
0|0

2
0

07 сен 2016, 17:32

Anonymous Перейти к последнему сообщению

В этой теме нет новых непрочитанных сообщений. Скачать торрент Проверен Космический спецназ Гарфилда 3Д / Garfield's Pet Force 3D (Марк А.З. Диппе / Mark A.Z. Dippé) [2009, комедия, семейный, мультфильм, Blu-ray Disc 1080p (custom)] BD3D [3D/2D] MVO + Original + Sub

в форуме 3D Мультфильмы, Размер: 19.8 ГБ, Здоровье: 0%

Anonymous

0
0|0

0
0

07 сен 2016, 17:51

Anonymous Перейти к последнему сообщению



Сейчас этот форум просматривают: нет зарегистрированных пользователей и гости: 1


Вы не можете начинать темы
Вы не можете отвечать на сообщения
Вы не можете редактировать свои сообщения
Вы не можете удалять свои сообщения
Вы не можете добавлять вложения

Перейти:  

!ВНИМАНИЕ!
 Ресурс не предоставляет электронные версии произведений, а занимается лишь коллекционированием и каталогизацией ссылок, присылаемых и публикуемых на форуме нашими читателями. Если вы являетесь правообладателем какого-либо представленного материала и не желаете чтобы ссылка на него находилась в нашем каталоге, свяжитесь с нами и мы незамедлительно удалим её. Файлы для обмена на трекере предоставлены пользователями сайта, и администрация не несёт ответственности за их содержание. Просьба не заливать файлы, защищенные авторскими правами, а также файлы нелегального содержания!