На всех торрентах на трекере установлена скидка на скачивание в размере 100 процентов(а).
 Возможность скачивания торрента НЕ зависит от ограничений при низком ратио, низком аплоаде, требуемом ратио или требуемом аплоаде.


Начать новую тему Ответить на тему
Статистика раздачи
Размер: 7.22 ГБ | Добавлен: 07 дек 2012, 10:38 | Скачали: 70
Сидеров: 10  [0 байт/сек]    Личеров: 3  [0 байт/сек]
Пред. тема | След. тема 

Автор
Сообщение

СообщениеДобавлено: 07 дек 2012, 10:35 

Информация о фильме
Название: Невыносимая жестокость
Оригинальное название: Intolerable Cruelty
Год выхода: 2003
Жанр: Комедия, мелодрама, криминал
Режиссер: Джоэл Коэн, Итэн Коэн
В ролях: Джордж Клуни, Кэтрин Зета-Джонс, Джеффри Раш, Седрик «Развлекатель», Эдвард Херрманн, Пол Адельштейн, Ричард Дженкинс, Билли Боб Торнтон, Джулия Даффи, Джонатан Хэдари

О фильме:
У знаменитого адвоката Майлза Масси есть все - слава, деньги, благодарная клиентура и брачный контракт, названный в его честь. Но Майлз чувствует, что ему не хватает поединка с достойным врагом. Судьба сводит его с соблазнительной Мэрилин Рексрот, брачной аферисткой, которая собирается развестись с его клиентом и при этом значительно пополнить свой банковский счет. И пусть в этот раз ей не повезло - она тут же находит новую жертву, нефтяного магната Дойла, и начинает игру, в которой Майлзу придется еще не раз удивляться...



Рейтинг MPAA: PG-13 - Детям до 13 лет просмотр не желателен

Страна: США
Продолжительность: 01:39:34
Перевод: Дублированный

Файл
Формат: mkv
Кодек: AVC MPEG-4 (x264)
Качество: BDRip 1080p
Видео: 1920x1040p (1,85:1), 8 889 Kbps avg, 23.976 fps, 0.186 bit/pixel
Звук:
Русский: AC-3, 6 ch, 640 kbps avg (Дублированный),
Английский: AC-3, 6 ch, 640 kbps avg (Original)
Субтитры: Русские SRT и PGS, английские PGS
Навигация по главам: есть


Общее
Уникальный идентификатор : 207707643385952902068656469637312335145 (0x9C4309795302594BAED79BC37024CD29)
Полное имя : D:Intolerable Cruelty.2003.BDRip.1080p.Rus.Eng.mkv
Формат : Matroska
Версия формата : Version 2
Размер файла : 7,22 Гбайт
Продолжительность : 1 ч. 39 м.
Общий поток : 10,4 Мбит/сек
Дата кодирования : UTC 2012-12-06 13:26:36
Программа кодирования : mkvmerge v5.8.0 ('No Sleep / Pillow') built on Sep 2 2012 15:37:04
Библиотека кодирования : libebml v1.2.3 + libmatroska v1.3.0

Видео
Идентификатор : 1
Формат : AVC
Формат/Информация : Advanced Video Codec
Профиль формата : High@L4.1
Параметр CABAC формата : Да
Параметр ReFrames формата : 5 кадров
Идентификатор кодека : V_MPEG4/ISO/AVC
Продолжительность : 1 ч. 39 м.
Битрейт : 8889 Кбит/сек
Ширина : 1920 пикселей
Высота : 1040 пикселей
Соотношение сторон : 1,85:1
Режим частоты кадров : Постоянный
Частота кадров : 23,976 кадра/сек
Цветовое пространство : YUV
Субдискретизация насыщенности : 4:2:0
Битовая глубина : 8 бит
Тип развёртки : Прогрессивная
Бит/(Пиксели*Кадры) : 0.186
Размер потока : 6,18 Гбайт (86%)
Заголовок : Intolerable Cruelty.2003
Библиотека кодирования : x264 core 128 r2216M 198a7ea
Настройки программы : cabac=1 / ref=6 / deblock=1:-1:-1 / analyse=0x3:0x133 / me=umh / subme=10 / psy=1 / psy_rd=1.00:0.15 / mixed_ref=1 / me_range=32 / chroma_me=1 / trellis=2 / 8x8dct=1 / cqm=0 / deadzone=21,11 / fast_pskip=1 / chroma_qp_offset=-3 / threads=4 / lookahead_threads=1 / sliced_threads=0 / nr=0 / decimate=1 / interlaced=0 / bluray_compat=0 / constrained_intra=0 / bframes=7 / b_pyramid=1 / b_adapt=2 / b_bias=0 / direct=3 / weightb=1 / open_gop=0 / weightp=2 / keyint=230 / keyint_min=23 / scenecut=40 / intra_refresh=0 / rc_lookahead=40 / rc=crf / mbtree=1 / crf=20.0 / qcomp=0.60 / qpmin=10 / qpmax=51 / qpstep=4 / ip_ratio=1.40 / aq=1:1.00
Default : Да
Forced : Нет

Аудио #1
Идентификатор : 2
Формат : AC-3
Формат/Информация : Audio Coding 3
Расширение режима : CM (complete main)
Параметр Endianness формата : Big
Идентификатор кодека : A_AC3
Продолжительность : 1 ч. 39 м.
Вид битрейта : Постоянный
Битрейт : 640 Кбит/сек
Каналы : 6 каналов
Расположение каналов : Front: L C R, Side: L R, LFE
Частота : 48,0 КГц
Битовая глубина : 16 бит
Метод сжатия : С потерями
Задержка видео : 59 мс.
Размер потока : 456 Мбайт (6%)
Заголовок : Dub
Язык : Russian
Default : Да
Forced : Нет

Аудио #2
Идентификатор : 3
Формат : AC-3
Формат/Информация : Audio Coding 3
Расширение режима : CM (complete main)
Параметр Endianness формата : Big
Идентификатор кодека : A_AC3
Продолжительность : 1 ч. 39 м.
Вид битрейта : Постоянный
Битрейт : 640 Кбит/сек
Каналы : 6 каналов
Расположение каналов : Front: L C R, Side: L R, LFE
Частота : 48,0 КГц
Битовая глубина : 16 бит
Метод сжатия : С потерями
Задержка видео : 59 мс.
Размер потока : 456 Мбайт (6%)
Язык : English
Default : Нет
Forced : Нет

Текст #1
Идентификатор : 4
Формат : UTF-8
Идентификатор кодека : S_TEXT/UTF8
Идентификатор кодека/Информация : UTF-8 Plain Text
Заголовок : SRT
Язык : Russian
Default : Да
Forced : Нет

Текст #2
Идентификатор : 5
Формат : PGS
Режим смешивания : zlib
Идентификатор кодека : S_HDMV/PGS
Идентификатор кодека/Информация : The same subtitle format used on BDs/HD-DVDs
Заголовок : PGS
Язык : English
Default : Нет
Forced : Нет

Текст #3
Идентификатор : 6
Формат : PGS
Режим смешивания : zlib
Идентификатор кодека : S_HDMV/PGS
Идентификатор кодека/Информация : The same subtitle format used on BDs/HD-DVDs
Заголовок : PGS
Язык : Russian
Default : Нет
Forced : Нет

Меню
00:00:00.000 : en:Pool Boy [Main Titles]
00:08:48.277 : en:Massaging the Truth
00:12:04.140 : en:David and Goliath
00:14:59.023 : en:A Job Well Done
00:19:23.370 : en:The War Room
00:22:15.959 : en:Negotiation
00:26:57.574 : en:The Real Goal
00:33:02.814 : en:Tenzing Norgay
00:41:45.711 : en:Just the Girls
00:43:51.211 : en:Inner Sanctum
00:46:01.800 : en:The New Guy
00:54:06.952 : en:Eating His Words
00:59:42.745 : en:The Moral Universe
01:06:11.759 : en:Wee Kirk
01:10:48.619 : en:Keynote Address
01:16:49.896 : en:Soap
01:19:34.811 : en:Second Thoughts
01:23:19.411 : en:Last Train Ride
01:25:34.420 : en:Canceling the Contract
01:30:34.637 : en:A Hit [End Titles]
загрузка...
Правила, инструкции, FAQ!!!
Торрент  Добавлен [07 дек 2012, 10:38] Скачать торрент
Скачать торрент
[ Размер 18.81 КБ / Просмотров 15 ]

Статус
Проверен 
 
Размер  7.22 ГБ
Приватный: Нет (DHT включён)
.torrent скачан  70
Как залить торрент? | Как скачать Torrent? | Как смотреть и слушать онлайн?  


     Отправить личное сообщение
   
Страница 1 из 1
Показать сообщения за:  Поле сортировки  
Начать новую тему Ответить на тему

   Похожие торренты   Автор   Ответы   Просмотры   Последнее сообщение 
В этой теме нет новых непрочитанных сообщений. Скачать торрент Проверен Невыносимая жестокость / Intolerable Cruelty (2003) BDRip 720p

в форуме 720p | 1080p, Размер: 3.39 ГБ, Здоровье: 100%

Anonymous

0
14|12

57
322

20 авг 2014, 16:22

Anonymous Перейти к последнему сообщению

В этой теме нет новых непрочитанных сообщений. Скачать торрент Невыносимая жестокость / Intolerable Cruelty (2003) HDRip | D

в форуме Комедии, Размер: 1.45 ГБ, Здоровье: 100%

Anonymous

0
84|7

23
790

16 янв 2014, 20:08

Anonymous Перейти к последнему сообщению

В этой теме нет новых непрочитанных сообщений. Скачать торрент Проверен Оправданная жестокость / A History of Violence (2005) BDRip 1080p

в форуме 720p | 1080p, Размер: 7.95 ГБ, Здоровье: 100%

Гость

0
7|1

32
1

31 авг 2016, 22:35

Гость Перейти к последнему сообщению

В этой теме нет новых непрочитанных сообщений. Скачать торрент Проверен [iPad] Оправданная жестокость / A History of Violence (Дэвид Кроненберг/ David Cronenberg) [2005, США, Германия, Триллер, драма, криминал, BDRip, 576p] Dub + Original + sub (rus, eng)

в форуме Фильмы для iPod, iPhone, iPad, Размер: 1.64 ГБ, Здоровье: 100%

Anonymous

0
27|8

63
1

18 май 2015, 10:48

Anonymous Перейти к последнему сообщению

В этой теме нет новых непрочитанных сообщений. Скачать торрент Проверен Люди Икс 2 / X2 (2003) BDRip 1080p

в форуме 720p | 1080p, Размер: 6.94 ГБ, Здоровье: 100%

Anonymous

0
9|7

39
34

29 окт 2014, 23:48

Anonymous Перейти к последнему сообщению



Сейчас этот форум просматривают: нет зарегистрированных пользователей и гости: 5


Вы не можете начинать темы
Вы не можете отвечать на сообщения
Вы не можете редактировать свои сообщения
Вы не можете удалять свои сообщения
Вы не можете добавлять вложения

Перейти:  

!ВНИМАНИЕ!
 Ресурс не предоставляет электронные версии произведений, а занимается лишь коллекционированием и каталогизацией ссылок, присылаемых и публикуемых на форуме нашими читателями. Если вы являетесь правообладателем какого-либо представленного материала и не желаете чтобы ссылка на него находилась в нашем каталоге, свяжитесь с нами и мы незамедлительно удалим её. Файлы для обмена на трекере предоставлены пользователями сайта, и администрация не несёт ответственности за их содержание. Просьба не заливать файлы, защищенные авторскими правами, а также файлы нелегального содержания!