На всех торрентах на трекере установлена скидка на скачивание в размере 100 процентов(а).
 Возможность скачивания торрента НЕ зависит от ограничений при низком ратио, низком аплоаде, требуемом ратио или требуемом аплоаде.


Начать новую тему Ответить на тему
Статистика раздачи
Размер: 1.45 ГБ | Добавлен: 10 дек 2013, 11:33 | Скачали: 0
Сидеров: 0  [0 байт/сек]    Личеров: 0  [0 байт/сек]
Пред. тема | След. тема 

Автор
Сообщение

СообщениеДобавлено: 10 дек 2013, 11:33 

Название: Пробуждая Мэдисон
Оригинальное название: Waking Madison
Год выхода: 2010
Жанр: драма
Режиссер: Кэтерин Брукс

В ролях: Элизабет Шу, Имоджен Путс, Фрэнсис Конрой, Тэрин Мэннинг, Сара Ремер, Уилл Пэттон, Эрин Келли, Доминик ДюВерней, Венди Гленн, Джефф Галпин

О фильме: Главная героиня фильма — Мэдисон — живет в Новом Орлеане. Пребывая в отчаянии и на грани суицида, она запирается в своей квартире на 30 дней. Используя видеокамеру для записи дневника, она дает обещание, что если не сможет нормализовать свою жизнь, то покончит самоубийством на 30 день заточения.



Страна: США
Продолжительность: 01:29:02
Перевод: Профессиональный (многоголосый закадровый) СВ-Дубль


Кодек: x.264
Качество: BDRip-AVC
Видео: 1024x576 (16:9), 23.976 fps, 2143 kbps, 0.152 bit/pixel
Звук: 48 kHz, AC3 Dolby Digital, 2 ch, ~192.00 kbps
Субтитры: Английские (SDH)

&

Общее
Уникальный идентификатор : 203210014026777669476827209208968086867 (0x98E0D339D79B4C70A12B80A74E898553)
Полное имя : D:TorrentWaking Madison.2010.BDRip-AVC.mkv
Формат : Matroska
Версия формата : Version 4 / Version 2
Размер файла : 1,45 Гбайт
Продолжительность : 1 ч. 29 м.
Общий поток : 2334 Кбит/сек
Название фильма : Пробуждая Мэдисон / Waking Madison (2010) BDRip-AVC rip by Rulya74
Дата кодирования : UTC 2013-12-09 20:00:27
Программа кодирования : mkvmerge v6.5.0 ('Isn't she lovely') built on Oct 20 2013 12:50:05
Библиотека кодирования : libebml v1.3.0 + libmatroska v1.4.1

Видео
Идентификатор : 1
Формат : AVC
Формат/Информация : Advanced Video Codec
Профиль формата : Main@L4.1
Параметр CABAC формата : Да
Параметр ReFrames формата : 10 кадров
Идентификатор кодека : V_MPEG4/ISO/AVC
Продолжительность : 1 ч. 29 м.
Битрейт : 2143 Кбит/сек
Ширина : 1024 пикселя
Высота : 576 пикселей
Соотношение сторон : 16:9
Режим частоты кадров : Постоянный
Частота кадров : 23,976 кадра/сек
Цветовое пространство : YUV
Субдискретизация насыщенности : 4:2:0
Битовая глубина : 8 бит
Тип развёртки : Прогрессивная
Бит/(Пиксели*Кадры) : 0.152
Размер потока : 1,30 Гбайт (90%)
Библиотека кодирования : x264 core 130 r2273 b3065e6
Настройки программы : cabac=1 / ref=10 / deblock=1:-3:-3 / analyse=0x1:0 / me=umh / subme=11 / psy=1 / psy_rd=1.01:0.02 / mixed_ref=1 / me_range=48 / chroma_me=1 / trellis=2 / 8x8dct=0 / cqm=0 / deadzone=21,11 / fast_pskip=0 / chroma_qp_offset=-3 / threads=4 / lookahead_threads=1 / sliced_threads=0 / nr=0 / decimate=1 / interlaced=0 / bluray_compat=0 / constrained_intra=0 / bframes=5 / b_pyramid=2 / b_adapt=2 / b_bias=0 / direct=3 / weightb=1 / open_gop=0 / weightp=2 / keyint=250 / keyint_min=23 / scenecut=40 / intra_refresh=0 / rc_lookahead=50 / rc=2pass / mbtree=1 / bitrate=2143 / ratetol=1.0 / qcomp=0.60 / qpmin=10 / qpmax=69 / qpstep=4 / cplxblur=20.0 / qblur=0.5 / ip_ratio=1.40 / aq=1:1.00
Default : Да
Forced : Нет

Аудио
Идентификатор : 2
Формат : AC-3
Формат/Информация : Audio Coding 3
Расширение режима : CM (complete main)
Параметр Endianness формата : Big
Идентификатор кодека : A_AC3
Продолжительность : 1 ч. 29 м.
Вид битрейта : Постоянный
Битрейт : 192 Кбит/сек
Каналы : 2 канала
Расположение каналов : Front: L R
Частота : 48,0 КГц
Битовая глубина : 16 бит
Метод сжатия : С потерями
Размер потока : 122 Мбайт (8%)
Заголовок : Профессиональный (многоголосый закадровый) СВ-Дубль
Язык : Russian
Default : Да
Forced : Нет

Текст
Идентификатор : 3
Формат : UTF-8
Идентификатор кодека : S_TEXT/UTF8
Идентификатор кодека/Информация : UTF-8 Plain Text
Заголовок : SDH
Язык : English
Default : Да
Forced : Нет

загрузка...
Правила, инструкции, FAQ!!!
Торрент  Добавлен [10 дек 2013, 11:33] Скачать торрент
Скачать торрент
[ Размер 14.94 КБ / Просмотров 9 ]

Статус  
 
Размер  1.45 ГБ
Приватный: Нет (DHT включён)
.torrent скачан  0
Как залить торрент? | Как скачать Torrent? | Как смотреть и слушать онлайн?  


     Отправить личное сообщение
   
Страница 1 из 1
Показать сообщения за:  Поле сортировки  
Начать новую тему Ответить на тему

   Похожие торренты   Автор   Ответы   Просмотры   Последнее сообщение 
В этой теме нет новых непрочитанных сообщений. Скачать торрент Билли Мэдисон / Billy Madison (1995) BDRip

в форуме Комедии, Размер: 2.06 ГБ, Здоровье: 0%

Anonymous

0
0|0

44
0

21 янв 2014, 14:34

Anonymous Перейти к последнему сообщению

В этой теме нет новых непрочитанных сообщений. Скачать торрент Проверен Билли Мэдисон / Billy Madison (1995) BDRip 720p by msltel

в форуме 720p | 1080p, Размер: 3.7 ГБ, Здоровье: 100%

Гость

0
58|0

71
11

16 ноя 2015, 00:04

Гость Перейти к последнему сообщению

В этой теме нет новых непрочитанных сообщений. Скачать торрент Проверен Роберт Уоллер / Robert Waller - Мосты округа Мэдисон / The Bridges of Madison County [2005, rtf, TXT]

в форуме Зарубежная литература (XX и XXI век), Размер: 1.01 МБ, Здоровье: 100%

Anonymous

0
5|2

2
0

08 сен 2016, 19:19

Anonymous Перейти к последнему сообщению

В этой теме нет новых непрочитанных сообщений. Скачать торрент Проверен Роберт Уоллер / Robert Waller - Мосты округа Мэдисон / The Bridges of Madison County [1994, FB2, RUS]

в форуме Зарубежная литература (XX и XXI век), Размер: 305.22 КБ, Здоровье: 100%

Anonymous

0
4|2

13
0

08 сен 2016, 20:09

Anonymous Перейти к последнему сообщению

В этой теме нет новых непрочитанных сообщений. Скачать торрент Грешная плоть / Carnal Sins (Мэдисон Монро / Madison Monroe) [2001 г., Драма, Мелодрама, Эротика, DVDRip]

в форуме Драмы, Мелодрамы, Размер: 1008.72 МБ, Здоровье: 100%

Anonymous

0
35|3

220
10

29 апр 2014, 13:58

Anonymous Перейти к последнему сообщению



Сейчас этот форум просматривают: нет зарегистрированных пользователей и гости: 1


Вы не можете начинать темы
Вы не можете отвечать на сообщения
Вы не можете редактировать свои сообщения
Вы не можете удалять свои сообщения
Вы не можете добавлять вложения

Перейти:  

!ВНИМАНИЕ!
 Ресурс не предоставляет электронные версии произведений, а занимается лишь коллекционированием и каталогизацией ссылок, присылаемых и публикуемых на форуме нашими читателями. Если вы являетесь правообладателем какого-либо представленного материала и не желаете чтобы ссылка на него находилась в нашем каталоге, свяжитесь с нами и мы незамедлительно удалим её. Файлы для обмена на трекере предоставлены пользователями сайта, и администрация не несёт ответственности за их содержание. Просьба не заливать файлы, защищенные авторскими правами, а также файлы нелегального содержания!