На всех торрентах на трекере установлена скидка на скачивание в размере 100 процентов(а).
 Возможность скачивания торрента НЕ зависит от ограничений при низком ратио, низком аплоаде, требуемом ратио или требуемом аплоаде.


Начать новую тему Ответить на тему
Статистика раздачи
Размер: 2.19 ГБ | Добавлен: 10 дек 2013, 09:32 | Скачали: 0
Сидеров: 0  [0 байт/сек]    Личеров: 0  [0 байт/сек]
Пред. тема | След. тема 

Автор
Сообщение

СообщениеДобавлено: 10 дек 2013, 09:32 

Название: Хорошо быть тихоней
Оригинальное название: The Perks of Being a Wallflower
Год выхода: 2012
Жанр: Драма, мелодрама
Режиссер: Стивен Чбоски

В ролях: Логан Лерман, Эмма Уотсон, Эзра Миллер, Дилан МакДермотт, Кейт Уолш, Патрик Де Ледебур, Джонни Симмонс, Брайан Балзерини, Том Крушевски, Нина Добрев

Сюжет фильма
История о Чарли, первокурснике в Питтсбурге, стеснительном и непопулярном. Затрагиваются темы насилия, подросткового секса, переходного возраста, наркотиков и суицида, внимание акцентируется на дилемме пассивности и страсти. На наших глазах Чарли взрослеет, меняется круг его общения, меняется его мнение о мире.

Выпущено: США, Summit Entertainment, Mr. Mudd
Продолжительность: 01:42:40
Перевод: Дублированный
Субтитры: Русские | Полные


Качество: BDRip 720p (исходник Blu-Ray Remux)
Видео: 1280x720, 2666 Кбит/сек, 23,976 кадр/сек, AVC, x264, High@L4.1, 16:9, 0.121 Бит/[Пиксели*Кадры], 2pass
Аудио: AC-3, 384 Кбит/сек, 6 канала(ов), 48,0 КГц
Чаптеры: Есть



Семпл



General
Unique ID : 204920414195790757021297829355623891056 (0x9A2A3C770D5658AE8928B247A9F94070)
Complete name : N:NoLimits-TeamThe Perks of Being a Wallflower .(2012).BDRip.720p.[NoLimits-Team].mkv
Format : Matroska
Format version : Version 4 / Version 2
File size : 2.19 GiB
Duration : 1h 42mn
Overall bit rate : 3 048 Kbps
Movie name : Хорошо быть тихоней.(2012).BDRip.720p.[NoLimits-Team]
Encoded date : UTC 2013-02-19 12:49:40
Writing application : mkvmerge v6.0.0 ('Coming Up For Air') built on Jan 20 2013 09:52:00
Writing library : libebml v1.3.0 + libmatroska v1.4.0

Video
ID : 1
Format : AVC
Format/Info : Advanced Video Codec
Format profile : High@L4.1
Format settings, CABAC : Yes
Format settings, ReFrames : 9 frames
Codec ID : V_MPEG4/ISO/AVC
Duration : 1h 42mn
Bit rate : 2 666 Kbps
Width : 1 280 pixels
Height : 720 pixels
Display aspect ratio : 16:9
Frame rate mode : Constant
Frame rate : 23.976 fps
Color space : YUV
Chroma subsampling : 4:2:0
Bit depth : 8 bits
Scan type : Progressive
Bits/(Pixel*Frame) : 0.121
Stream size : 1.87 GiB (85%)
Title : Хорошо быть тихоней.(2012).BDRip.720p.[NoLimits-Team]
Writing library : x264 core 129 r2245 bc13772
Encoding settings : cabac=1 / ref=9 / deblock=1:0:0 / analyse=0x3:0x133 / me=umh / subme=11 / psy=1 / psy_rd=1.00:0.00 / mixed_ref=1 / me_range=48 / chroma_me=1 / trellis=2 / 8x8dct=1 / cqm=0 / deadzone=21,11 / fast_pskip=0 / chroma_qp_offset=-2 / threads=9 / lookahead_threads=1 / sliced_threads=0 / nr=0 / decimate=1 / interlaced=0 / bluray_compat=0 / constrained_intra=0 / bframes=11 / b_pyramid=2 / b_adapt=2 / b_bias=0 / direct=3 / weightb=1 / open_gop=0 / weightp=2 / keyint=240 / keyint_min=23 / scenecut=40 / intra_refresh=0 / rc_lookahead=60 / rc=2pass / mbtree=1 / bitrate=2666 / ratetol=1.0 / qcomp=0.60 / qpmin=0 / qpmax=69 / qpstep=4 / cplxblur=20.0 / qblur=0.5 / ip_ratio=1.40 / aq=1:1.00
Language : English
Default : Yes
Forced : No

Audio
ID : 2
Format : AC-3
Format/Info : Audio Coding 3
Mode extension : CM (complete main)
Format settings, Endianness : Big
Codec ID : A_AC3
Duration : 1h 42mn
Bit rate mode : Constant
Bit rate : 384 Kbps
Channel(s) : 6 channels
Channel positions : Front: L C R, Side: L R, LFE
Sampling rate : 48.0 KHz
Bit depth : 16 bits
Compression mode : Lossy
Stream size : 282 MiB (13%)
Title : Дублированный
Language : Russian
Default : Yes
Forced : No

Text
ID : 3
Format : UTF-8
Codec ID : S_TEXT/UTF8
Codec ID/Info : UTF-8 Plain Text
Title : Русские (полные)
Language : Russian
Default : No
Forced : No

Menu
00:00:00.000 : :Chapter 01
00:05:04.386 : :Chapter 02
00:10:24.624 : :Chapter 03
00:17:06.984 : :Chapter 04
00:21:38.005 : :Chapter 05
00:28:31.501 : :Chapter 06
00:33:09.070 : :Chapter 07
00:39:55.351 : :Chapter 08
00:47:17.000 : :Chapter 09
00:54:38.858 : :Chapter 10
00:58:15.950 : :Chapter 11
01:03:17.960 : :Chapter 12
01:10:13.125 : :Chapter 13
01:18:31.790 : :Chapter 14
01:23:11.611 : :Chapter 15
01:31:12.383 : :Chapter 16
01:42:39.903 : :Chapter 17
загрузка...
Правила, инструкции, FAQ!!!
Торрент  Добавлен [10 дек 2013, 09:32] Скачать торрент
Скачать торрент
[ Размер 11.48 КБ / Просмотров 11 ]

Статус  
 
Размер  2.19 ГБ
Приватный: Нет (DHT включён)
.torrent скачан  0
Как залить торрент? | Как скачать Torrent? | Как смотреть и слушать онлайн?  


     Отправить личное сообщение
   
Страница 1 из 1
Показать сообщения за:  Поле сортировки  
Начать новую тему Ответить на тему

   Похожие торренты   Автор   Ответы   Просмотры   Последнее сообщение 
В этой теме нет новых непрочитанных сообщений. Скачать торрент Проверен Stephen Chbosky / Стивен Чбоски - The Perks of Being a Wallflower / Хорошо быть тихоней [1999, PDF/FB2/DOC, RUS]

в форуме Зарубежная литература (XX и XXI век), Размер: 8.92 МБ, Здоровье: 0%

Anonymous

0
0|0

0
0

08 сен 2016, 19:44

Anonymous Перейти к последнему сообщению

В этой теме нет новых непрочитанных сообщений. Закрыто правообладателем Стивен Чбоски | Хорошо быть тихоней (2013) [FB2] Данный торрент является блокированным, причина: Закрыто правообладателем

в форуме Детективы и Боевики, Размер: 759.42 КБ, Здоровье: 100%

Anonymous

0
45|1

47
2

18 апр 2014, 00:22

Anonymous Перейти к последнему сообщению

В этой теме нет новых непрочитанных сообщений. Скачать торрент Проверен Rammstein: Videos 1995-2012 [2012, Industrial , BDRip (720p)]

в форуме Концерты (HD-Video), Размер: 21.24 ГБ, Здоровье: 100%

Гость

0
57|37

787
11

26 апр 2015, 22:42

Гость Перейти к последнему сообщению

В этой теме нет новых непрочитанных сообщений. Скачать торрент Проверен [SACD-R][OF] Diana Krall - Wallflower - 2015 (Jazz, Vocal)

в форуме Hi-Res stereo (Джаз и Блюз), Размер: 2.38 ГБ, Здоровье: 100%

Anonymous

0
25|8

37
2

27 авг 2016, 15:18

Anonymous Перейти к последнему сообщению

В этой теме нет новых непрочитанных сообщений. Скачать торрент Проверен [iPad] 2012 / 2012 (Роланд Эммерих / Roland Emmerich) [2009, фантастика, боевик, приключения, BDRip, 720p]

в форуме Фильмы для iPod, iPhone, iPad, Размер: 4.31 ГБ, Здоровье: 100%

Гость

0
5|1

31
0

11 май 2015, 01:37

Гость Перейти к последнему сообщению



Сейчас этот форум просматривают: нет зарегистрированных пользователей и гости: 2


Вы не можете начинать темы
Вы не можете отвечать на сообщения
Вы не можете редактировать свои сообщения
Вы не можете удалять свои сообщения
Вы не можете добавлять вложения

Перейти:  

!ВНИМАНИЕ!
 Ресурс не предоставляет электронные версии произведений, а занимается лишь коллекционированием и каталогизацией ссылок, присылаемых и публикуемых на форуме нашими читателями. Если вы являетесь правообладателем какого-либо представленного материала и не желаете чтобы ссылка на него находилась в нашем каталоге, свяжитесь с нами и мы незамедлительно удалим её. Файлы для обмена на трекере предоставлены пользователями сайта, и администрация не несёт ответственности за их содержание. Просьба не заливать файлы, защищенные авторскими правами, а также файлы нелегального содержания!