На всех торрентах на трекере установлена скидка на скачивание в размере 100 процентов(а).
 Возможность скачивания торрента НЕ зависит от ограничений при низком ратио, низком аплоаде, требуемом ратио или требуемом аплоаде.


Начать новую тему Ответить на тему
Статистика раздачи
Размер: 5.01 ГБ | Добавлен: 09 дек 2013, 09:42 | Скачали: 38
Сидеров: 4  [0 байт/сек]    Личеров: 0  [0 байт/сек]
Пред. тема | След. тема 

Автор
Сообщение

СообщениеДобавлено: 09 дек 2013, 09:42 

Название: Доберман
Оригинальное название: Dobermann
Год выхода: 1997
Жанр: боевик, криминал, драма

Режиссер: Жан Кунен / Jan Kounen

В ролях: Венсан Кассель (Yann 'Dobermann' Le Pentrec), Моника Беллуччи (Nathalie), Чеки Карио (Inspecteur Sauveur Cristini), Антуан Баслер (Jean-Claude 'Moustique' Ayache), Доминик Беттенфельд (Elie 'l'abbe' Frossard), Ромэн Дюри (Manu), Чик Ортега (Jacky 'Pitbull' Sueur), Стефан Мецгер (Olivier Brachet, dit Sonia), Франсуа Леванталь (Leo)

О фильме:
Герою фильма уже в день крестин один из друзей отца дарит Магнум-357. Мальчик вырос и стал супернаглым и дерзким грабителем по кличке Доберман. Магнум-357 заменили самые современные виды огнестрельного оружия, включая даже небольшие ракеты, которыми можно стрелять, навинчивая их на ствол пистолета.
Вместе с ним всегда его глухая подруга, спокойно красящая ногти во время ограбления инкассаторов. Остальные члены банды — тоже еще те типажи! Ловит же его жестокий полицейский, рядом с которым Грязный Гарри — просто бойскаут. Он одержимо хочет поймать или убить Добермана и для достижения своей цели готов пойти на все и даже преступить закон.



Страна: Франция
Продолжительность: 01:43:06
Перевод 1: профессиональный (многоголосый закадровый)
Перевод 2: авторский (одноголосый закадровый) Ю. Сербин
Перевод 3: авторский (одноголосый закадровый) Л. Володарский


Контейнер: MKV
Качество: BDRip 720p
Видео: x.264, 1280x544, 5169 Kbps, 23.976 fps
Аудио 1: AC3, 48000 Hz, 448 Kbps, 5.1 channels - MVO
Аудио 2: AC3, 48000 Hz, 448 Kbps, 5.1 channels - AVO (Ю. Сербин)
Аудио 3: AC3, 48000 Hz, 448 Kbps, 5.1 channels - AVO (Л. Володарский) отдельным файлом в папке раздачи
Аудио 4: AC3, 48000 Hz, 448 Kbps, 5.1 channels - FRE (Original) отдельным файлом в папке раздачи
Субтитры: русские, английские
С любыми 2 дорожками рип умещается на DVD5 - 4.37 Gb
x264 [info]: frame I:1121 Avg QP:17.16 size: 95301
x264 [info]: frame P:41385 Avg QP:19.42 size: 42401
x264 [info]: frame B:105958 Avg QP:20.99 size: 20122
============================================================
Complete name : ...Dobermann.1997.BDRip.720pDobermann.1997.BDRip.720p.mkv
Format : Matroska
Format version : Version 4 / Version 2
File size : 4.37 GiB
Duration : 1h 43mn
Overall bit rate : 6 062 Kbps
Movie name : Доберман / Dobermann (1997) BDRip 720p
Encoded date : UTC 2013-10-16 16:36:39
Writing application : mkvmerge v6.4.1 ('Omega Point') built on Sep 16 2013 22:05:10
Writing library : libebml v1.3.0 + libmatroska v1.4.1
Attachment : Yes

Video
ID : 1
Format : AVC
Format/Info : Advanced Video Codec
Format profile : High@L4.1
Format settings, CABAC : Yes
Format settings, ReFrames : 12 frames
Codec ID : V_MPEG4/ISO/AVC
Duration : 1h 43mn
Bit rate : 5 169 Kbps
Width : 1 280 pixels
Height : 544 pixels
Display aspect ratio : 2.35:1
Frame rate : 24.000 fps
Color space : YUV
Chroma subsampling : 4:2:0
Bit depth : 8 bits
Scan type : Progressive
Bits/(Pixel*Frame) : 0.309
Stream size : 3.63 GiB (83%)
Writing library : x264 core 138 r2358 9e941d1
Encoding settings : cabac=1 / ref=12 / deblock=1:-3:-2 / analyse=0x3:0x113 / me=umh / subme=10 / psy=1 / psy_rd=1.10:0.10 / mixed_ref=1 / me_range=32 / chroma_me=1 / trellis=2 / 8x8dct=1 / cqm=0 / deadzone=21,11 / fast_pskip=0 / chroma_qp_offset=-3 / threads=6 / lookahead_threads=1 / sliced_threads=0 / nr=0 / decimate=1 / interlaced=0 / bluray_compat=0 / constrained_intra=0 / bframes=8 / b_pyramid=2 / b_adapt=2 / b_bias=0 / direct=3 / weightb=1 / open_gop=0 / weightp=2 / keyint=240 / keyint_min=24 / scenecut=40 / intra_refresh=0 / rc_lookahead=60 / rc=2pass / mbtree=0 / bitrate=5169 / ratetol=1.0 / qcomp=0.60 / qpmin=0 / qpmax=69 / qpstep=4 / cplxblur=20.0 / qblur=0.5 / vbv_maxrate=30000 / vbv_bufsize=40000 / nal_hrd=none / ip_ratio=1.20 / pb_ratio=1.20 / aq=1:1.00 / zones=141255,148463,b=0.35
Language : French
Default : Yes
Forced : No

Audio #1
ID : 2
Format : AC-3
Format/Info : Audio Coding 3
Mode extension : CM (complete main)
Codec ID : A_AC3
Duration : 1h 43mn
Bit rate mode : Constant
Bit rate : 448 Kbps
Channel(s) : 6 channels
Channel positions : Front: L C R, Side: L R, LFE
Sampling rate : 48.0 KHz
Bit depth : 16 bits
Compression mode : Lossy
Stream size : 330 MiB (7%)
Title : MVO
Language : Russian
Default : Yes
Forced : No

Audio #2
ID : 3
Format : AC-3
Format/Info : Audio Coding 3
Mode extension : CM (complete main)
Codec ID : A_AC3
Duration : 1h 43mn
Bit rate mode : Constant
Bit rate : 448 Kbps
Channel(s) : 6 channels
Channel positions : Front: L C R, Side: L R, LFE
Sampling rate : 48.0 KHz
Bit depth : 16 bits
Compression mode : Lossy
Stream size : 330 MiB (7%)
Title : AVO - Serbin
Language : Russian
Default : No
Forced : No

Text #1
ID : 4
Format : UTF-8
Codec ID : S_TEXT/UTF8
Codec ID/Info : UTF-8 Plain Text
Language : Russian
Default : No
Forced : No

Text #2
ID : 5
Format : UTF-8
Codec ID : S_TEXT/UTF8
Codec ID/Info : UTF-8 Plain Text
Language : English
Default : No
Forced : No

Menu
00:00:00.000 : en:Chapter 1
00:07:57.041 : en:Chapter 2
00:14:38.166 : en:Chapter 3
00:21:39.125 : en:Chapter 4
00:29:36.291 : en:Chapter 5
00:37:09.166 : en:Chapter 6
00:45:07.666 : en:Chapter 7
00:52:10.125 : en:Chapter 8
00:57:08.375 : en:Chapter 9
01:03:44.000 : en:Chapter 10
01:10:01.583 : en:Chapter 11
01:15:33.875 : en:Chapter 12
01:20:44.541 : en:Chapter 13
01:26:28.875 : en:Chapter 14
01:31:54.666 : en:Chapter 15
01:38:03.916 : en:Chapter 16



загрузка...
Правила, инструкции, FAQ!!!
Торрент  Добавлен [09 дек 2013, 09:42] Скачать торрент
Скачать торрент
[ Размер 25.81 КБ / Просмотров 8 ]

Статус  
 
Размер  5.01 ГБ
Приватный: Нет (DHT включён)
.torrent скачан  38
Как залить торрент? | Как скачать Torrent? | Как смотреть и слушать онлайн?  


     Отправить личное сообщение
   
Страница 1 из 1
Показать сообщения за:  Поле сортировки  
Начать новую тему Ответить на тему

   Похожие торренты   Автор   Ответы   Просмотры   Последнее сообщение 
В этой теме нет новых непрочитанных сообщений. Скачать торрент Проверен Игра / The Game (1997) BDRip 720p

в форуме 720p | 1080p, Размер: 4.43 ГБ, Здоровье: 100%

Гость

0
249|54

91
345

27 май 2015, 00:01

Гость Перейти к последнему сообщению

В этой теме нет новых непрочитанных сообщений. Скачать торрент Проверен Без лица / Face/Off (1997) BDRip [720p]

в форуме 720p | 1080p, Размер: 13.5 ГБ, Здоровье: 100%

Anonymous

0
11|8

54
1

13 ноя 2014, 22:20

Anonymous Перейти к последнему сообщению

В этой теме нет новых непрочитанных сообщений. Скачать торрент Проверен Благодетель / The Rainmaker (1997) BDRip 720p | D,P,P1,A

в форуме 720p | 1080p, Размер: 6.12 ГБ, Здоровье: 100%

Anonymous

0
120|37

24
232

05 янв 2015, 22:15

Anonymous Перейти к последнему сообщению

В этой теме нет новых непрочитанных сообщений. Скачать торрент Проверен Амистад / Amistad (1997) BDRip 720p | P, P2

в форуме 720p | 1080p, Размер: 8.26 ГБ, Здоровье: 100%

Гость

0
3|3

124
6

27 апр 2016, 20:35

Гость Перейти к последнему сообщению

В этой теме нет новых непрочитанных сообщений. Скачать торрент Проверен Лолита / Lolita (1997) BDRip 720p

в форуме 720p | 1080p, Размер: 7.76 ГБ, Здоровье: 100%

Anonymous

0
64|6

46
232

06 дек 2014, 10:28

Anonymous Перейти к последнему сообщению



Сейчас этот форум просматривают: нет зарегистрированных пользователей и гости: 4


Вы не можете начинать темы
Вы не можете отвечать на сообщения
Вы не можете редактировать свои сообщения
Вы не можете удалять свои сообщения
Вы не можете добавлять вложения

Перейти:  

!ВНИМАНИЕ!
 Ресурс не предоставляет электронные версии произведений, а занимается лишь коллекционированием и каталогизацией ссылок, присылаемых и публикуемых на форуме нашими читателями. Если вы являетесь правообладателем какого-либо представленного материала и не желаете чтобы ссылка на него находилась в нашем каталоге, свяжитесь с нами и мы незамедлительно удалим её. Файлы для обмена на трекере предоставлены пользователями сайта, и администрация не несёт ответственности за их содержание. Просьба не заливать файлы, защищенные авторскими правами, а также файлы нелегального содержания!