На всех торрентах на трекере установлена скидка на скачивание в размере 100 процентов(а).
 Возможность скачивания торрента НЕ зависит от ограничений при низком ратио, низком аплоаде, требуемом ратио или требуемом аплоаде.


Начать новую тему Ответить на тему
Статистика раздачи
Размер: 5.37 ГБ | Добавлен: 07 дек 2012, 09:06 | Скачали: 0
Сидеров: 0  [0 байт/сек]    Личеров: 0  [0 байт/сек]
Пред. тема | След. тема 

Автор
Сообщение

СообщениеДобавлено: 07 дек 2012, 09:06 

Название: Эволюция Борна
Год выхода: 2012
Жанр: Боевик, детектив, криминал, триллер
Режиссер: Тони Гилрой
В ролях: Джереми Реннер, Рейчел Вайс, Эдвард Нортон, Джоан Аллен, Альберт Финни, Скотт Гленн, Стейси Кич, Донна Мерфи, Майкл Чернус, Кори Столл, Элис Гейнер, Прю Леворн, Ховард Лидер, Джеймс Джозеф О’Нил, Тони Гуида, Сонни Браун, Нил Брукс Каннингэм, Желько Иванек, Роб Райли, Ноэль Уилсон, Деннис Буцикарис, Оскар Айзек, Дэвид Стрэтэйрн, Кори Джонсон, Дженнифер Ким, Пейдж Леонг, Джон Дуглас Томпсон, Ади Ханаш, Роберт Прескотт, Дэвид Уилсон Барнс, Дон Гиллори, Патрик Винсент Марро, Али Фаранакян, Гита Редди, Том Риис Фаррелл, Стив Рутман

Сюжет фильма: В игре всегда несколько фигур. Одна из них — Джейсон Борн, другая — совершенный агент Аарон Кросс. Их возможности безграничны. Но даже у идеального оружия бывают сбои…

Продолжительность: 02:15:02
Перевод: Профессиональный (полное дублирование) [Лицензия]
Выпущено: США, Bourne Film Productions


Формат: mkv
Качество: BDRip [1080p]
Видео: 1920x800, 5305 Кбит/сек, 23,976 кадр/сек, AVC, x264, 2,40:1, 0.144 Бит/[Пиксели*Кадры], 2pass
Аудио: AC-3, 384 Кбит/сек, 6 канала(ов), 48,0 КГц
Размер: 5,37 ГБ

Бюджет Фильма: $125 000 000
Кассовые сборы: $276 124 214









Общее
Уникальный идентификатор : 172751474230767067761032963027498561854 (0x81F6B945706C7A7CA5B15A0713E9F13E)
Полное имя : A:РаздачиThe.Bourne.Legacy.2012.x264.BDRip.1080p.DUB.mkv
Формат : Matroska
Версия формата : Version 2
Размер файла : 5,37 Гбайт
Продолжительность : 2 ч. 15 м.
Общий поток : 5688 Кбит/сек
Дата кодирования : UTC 2012-12-05 12:30:53
Программа кодирования : mkvmerge v5.5.0 ('Healer') built on Apr 6 2012 21:43:24
Библиотека кодирования : libebml v1.2.3 + libmatroska v1.3.0

Видео
Идентификатор : 1
Формат : AVC
Формат/Информация : Advanced Video Codec
Профиль формата : High@L4.0
Параметр CABAC формата : Да
Параметр ReFrames формата : 4 кадра
Идентификатор кодека : V_MPEG4/ISO/AVC
Продолжительность : 2 ч. 15 м.
Битрейт : 5305 Кбит/сек
Ширина : 1920 пикселей
Высота : 800 пикселей
Соотношение сторон : 2,40:1
Частота кадров : 23,976 кадра/сек
Цветовое пространство : YUV
Субдискретизация насыщенности : 4:2:0
Битовая глубина : 8 бит
Тип развёртки : Прогрессивная
Бит/(Пиксели*Кадры) : 0.144
Размер потока : 4,90 Гбайт (91%)
Заголовок : Эволюция Борна
Библиотека кодирования : x264 core 129 r2230 1cffe9f
Настройки программы : cabac=1 / ref=3 / deblock=1:0:0 / analyse=0x3:0x113 / me=hex / subme=7 / psy=1 / psy_rd=1.00:0.00 / mixed_ref=1 / me_range=16 / chroma_me=1 / trellis=1 / 8x8dct=1 / cqm=0 / deadzone=21,11 / fast_pskip=1 / chroma_qp_offset=-2 / threads=12 / lookahead_threads=2 / sliced_threads=0 / nr=0 / decimate=1 / interlaced=0 / bluray_compat=0 / constrained_intra=0 / bframes=3 / b_pyramid=2 / b_adapt=1 / b_bias=0 / direct=1 / weightb=1 / open_gop=0 / weightp=2 / keyint=240 / keyint_min=23 / scenecut=40 / intra_refresh=0 / rc_lookahead=40 / rc=2pass / mbtree=1 / bitrate=5305 / ratetol=1.0 / qcomp=0.60 / qpmin=10 / qpmax=51 / qpstep=4 / cplxblur=20.0 / qblur=0.5 / ip_ratio=1.40 / aq=1:1.00
Язык : English
Default : Да
Forced : Нет

Аудио
Идентификатор : 2
Формат : AC-3
Формат/Информация : Audio Coding 3
Расширение режима : CM (complete main)
Идентификатор кодека : A_AC3
Продолжительность : 2 ч. 15 м.
Вид битрейта : Постоянный
Битрейт : 384 Кбит/сек
Каналы : 6 каналов
Расположение каналов : Front: L C R, Side: L R, LFE
Частота : 48,0 КГц
Битовая глубина : 16 бит
Метод сжатия : С потерями
Размер потока : 371 Мбайт (7%)
Заголовок : Дублированный
Язык : Russian
Default : Да
Forced : Нет
загрузка...
Правила, инструкции, FAQ!!!
Торрент  Добавлен [07 дек 2012, 09:06] Скачать торрент
Скачать торрент
[ Размер 13.99 КБ / Просмотров 18 ]

Статус
Проверен 
 
Размер  5.37 ГБ
Приватный: Нет (DHT включён)
.torrent скачан  0
Как залить торрент? | Как скачать Torrent? | Как смотреть и слушать онлайн?  


     Отправить личное сообщение
   
Страница 1 из 1
Показать сообщения за:  Поле сортировки  
Начать новую тему Ответить на тему

   Похожие торренты   Автор   Ответы   Просмотры   Последнее сообщение 
В этой теме нет новых непрочитанных сообщений. Скачать торрент Ультиматум Борна / The Bourne Ultimatum (2007) BDRip 720p

в форуме 720p | 1080p, Размер: 5.1 ГБ, Здоровье: 0%

Anonymous

0
0|0

17
0

05 фев 2014, 23:59

Anonymous Перейти к последнему сообщению

В этой теме нет новых непрочитанных сообщений. Скачать торрент Ультиматум Борна / The Bourne Ultimatum (2008) HDRip

в форуме Боевики, Размер: 1.46 ГБ, Здоровье: 0%

Anonymous

0
0|0

33
0

05 фев 2014, 23:50

Anonymous Перейти к последнему сообщению

В этой теме нет новых непрочитанных сообщений. Скачать торрент Проверен Джейсон Борн / Jason Bourne (2002-2012) BDRip [1080p] [hand made 60fps] [Квадрология]

в форуме Квадралогии, Размер: 42.49 ГБ, Здоровье: 0%

Anonymous

0
0|0

216
0

11 июл 2014, 23:54

Anonymous Перейти к последнему сообщению

В этой теме нет новых непрочитанных сообщений. Скачать торрент Замбезия / Zambezia (2012) BDRip 1080p | Лицензия

в форуме Зарубежные мультфильмы (HD Video), Размер: 6.08 ГБ, Здоровье: 100%

Anonymous

0
11|3

50
184

10 фев 2014, 22:31

Anonymous Перейти к последнему сообщению

В этой теме нет новых непрочитанных сообщений. Скачать торрент Схватка / The Grey (2012) BDRip 1080p | Лицензия

в форуме 720p | 1080p, Размер: 8.76 ГБ, Здоровье: 100%

Anonymous

0
17|0

31
3

29 янв 2014, 20:24

Anonymous Перейти к последнему сообщению



Сейчас этот форум просматривают: нет зарегистрированных пользователей и гости: 1


Вы не можете начинать темы
Вы не можете отвечать на сообщения
Вы не можете редактировать свои сообщения
Вы не можете удалять свои сообщения
Вы не можете добавлять вложения

Перейти:  

!ВНИМАНИЕ!
 Ресурс не предоставляет электронные версии произведений, а занимается лишь коллекционированием и каталогизацией ссылок, присылаемых и публикуемых на форуме нашими читателями. Если вы являетесь правообладателем какого-либо представленного материала и не желаете чтобы ссылка на него находилась в нашем каталоге, свяжитесь с нами и мы незамедлительно удалим её. Файлы для обмена на трекере предоставлены пользователями сайта, и администрация не несёт ответственности за их содержание. Просьба не заливать файлы, защищенные авторскими правами, а также файлы нелегального содержания!