На всех торрентах на трекере установлена скидка на скачивание в размере 100 процентов(а).
 Возможность скачивания торрента НЕ зависит от ограничений при низком ратио, низком аплоаде, требуемом ратио или требуемом аплоаде.


Начать новую тему Ответить на тему
Статистика раздачи
Размер: 2.19 ГБ | Добавлен: 07 дек 2012, 08:44 | Скачали: 0
Сидеров: 92  [0 байт/сек]    Личеров: 4  [0 байт/сек]
Пред. тема | След. тема 

Автор
Сообщение

СообщениеДобавлено: 07 дек 2012, 08:44 

Название: Обитель зла: Возмездие
Год выхода: 2012
Жанр: Ужасы, фантастика, боевик, триллер
Режиссер: Пол У. С. Андерсон
В ролях: Милла Йовович, Сиенна Гиллори, Мишель Родригес, Ариана Энджинир, Ли Бинбин, Борис Коджо, Йохан Урб, Робин Касянов, Кевин Дюран, Офилио Портильо

Сюжет фильма: Смертельный T-вирус, созданный в лабораториях корпорации «Амбрелла», продолжает захватывать Землю, превращая мировое население в легионы пожирающих плоть зомби. Последняя надежда человечества Элис внедряется в самое сердце самой тайной исследовательской базы корпорации и узнает еще больше о собственном таинственном прошлом. Не имея путей к отступлению, Элис продолжает искать виновных в глобальной катастрофе. Вызов, который она принимала в Токио, Нью-Йорке, Вашингтоне и даже в Москве, приводит ее в итоге к взрывающему сознание откровению, которое заставит ее переосмыслить все, что она полагала правдой. С помощью новых союзников и старых друзей, Элис будет сражаться за выживание и убегать из враждебного мира. Отсчет времени начат…

Продолжительность: 01:35:37
Перевод: Профессиональный (полное дублирование) [Лицензия]
Выпущено: Columbia Pictures, (США)


Формат: mkv
Качество: BDRip [720p]
Видео: 1280x528, 2634 Кбит/сек, 23,976 кадр/сек, AVC, x264, 2,40:1, 0.163 Бит/[Пиксели*Кадры], 2pass
Аудио: AC-3, 640 Кбит/сек, 6 канала(ов), 48,0 КГц
Размер: 2,19 ГБ

Бюджет Фильма: $65 000 000
Кассовые сборы: $221 545 531









Общее
Уникальный идентификатор : 236157208436389185757545022036970381053 (0xB1AA39538BA9710EB76FB6EA4DB51EFD)
Полное имя : A:РаздачиResident.Evil.Retribution.2012.x264.BDRip.720p.DUB.mkv
Формат : Matroska
Версия формата : Version 2
Размер файла : 2,19 Гбайт
Продолжительность : 1 ч. 35 м.
Общий поток : 3272 Кбит/сек
Дата кодирования : UTC 2012-12-07 02:14:43
Программа кодирования : mkvmerge v5.5.0 ('Healer') built on Apr 6 2012 21:43:24
Библиотека кодирования : libebml v1.2.3 + libmatroska v1.3.0

Видео
Идентификатор : 1
Формат : AVC
Формат/Информация : Advanced Video Codec
Профиль формата : High@L3.1
Параметр CABAC формата : Да
Параметр ReFrames формата : 4 кадра
Идентификатор кодека : V_MPEG4/ISO/AVC
Продолжительность : 1 ч. 35 м.
Битрейт : 2634 Кбит/сек
Ширина : 1280 пикселей
Высота : 528 пикселей
Соотношение сторон : 2,40:1
Соотношение сторон в оригинале : 2,40:1
Частота кадров : 23,976 кадра/сек
Цветовое пространство : YUV
Субдискретизация насыщенности : 4:2:0
Битовая глубина : 8 бит
Тип развёртки : Прогрессивная
Бит/(Пиксели*Кадры) : 0.163
Размер потока : 1,71 Гбайт (78%)
Заголовок : Обитель зла: Возмездие
Библиотека кодирования : x264 core 129 r2230 1cffe9f
Настройки программы : cabac=1 / ref=3 / deblock=1:0:0 / analyse=0x3:0x113 / me=hex / subme=7 / psy=1 / psy_rd=1.00:0.00 / mixed_ref=1 / me_range=16 / chroma_me=1 / trellis=1 / 8x8dct=1 / cqm=0 / deadzone=21,11 / fast_pskip=1 / chroma_qp_offset=-2 / threads=12 / lookahead_threads=2 / sliced_threads=0 / nr=0 / decimate=1 / interlaced=0 / bluray_compat=0 / constrained_intra=0 / bframes=3 / b_pyramid=2 / b_adapt=1 / b_bias=0 / direct=1 / weightb=1 / open_gop=0 / weightp=2 / keyint=240 / keyint_min=23 / scenecut=40 / intra_refresh=0 / rc_lookahead=40 / rc=2pass / mbtree=1 / bitrate=2634 / ratetol=1.0 / qcomp=0.60 / qpmin=10 / qpmax=51 / qpstep=4 / cplxblur=20.0 / qblur=0.5 / ip_ratio=1.40 / aq=1:1.00
Язык : English
Default : Да
Forced : Нет

Аудио
Идентификатор : 2
Формат : AC-3
Формат/Информация : Audio Coding 3
Расширение режима : CM (complete main)
Идентификатор кодека : A_AC3
Продолжительность : 1 ч. 35 м.
Вид битрейта : Постоянный
Битрейт : 640 Кбит/сек
Каналы : 6 каналов
Расположение каналов : Front: L C R, Side: L R, LFE
Частота : 48,0 КГц
Битовая глубина : 16 бит
Метод сжатия : С потерями
Размер потока : 438 Мбайт (20%)
Заголовок : Дубляж
Язык : Russian
Default : Да
Forced : Нет
загрузка...
Правила, инструкции, FAQ!!!
Торрент  Добавлен [07 дек 2012, 08:44] Скачать торрент
Скачать торрент
[ Размер 11.51 КБ / Просмотров 13 ]

Статус
Проверен 
 
Размер  2.19 ГБ
Приватный: Нет (DHT включён)
.torrent скачан  0
Как залить торрент? | Как скачать Torrent? | Как смотреть и слушать онлайн?  


     Отправить личное сообщение
   
Страница 1 из 1
Показать сообщения за:  Поле сортировки  
Начать новую тему Ответить на тему

   Похожие торренты   Автор   Ответы   Просмотры   Последнее сообщение 
В этой теме нет новых непрочитанных сообщений. Скачать торрент Обитель зла 2: Апокалипсис / Resident Evil 2 / Resident Evil: Nemesis / Resident Evil: Apocalypse (Александр Уитт / Alexander Witt) [2004, зомби-экшн, BDRip] [театральная версия / theatrical cut] Dub

в форуме Фантастика, Фэнтези, Размер: 1.46 ГБ, Здоровье: 100%

Anonymous

0
56|19

76
0

22 апр 2014, 11:47

Anonymous Перейти к последнему сообщению

В этой теме нет новых непрочитанных сообщений. Скачать торрент Обитель зла / Resident Evil (2002) BDRip 720p

в форуме 720p | 1080p, Размер: 4.67 ГБ, Здоровье: 100%

Anonymous

0
85|6

49
10

12 янв 2014, 23:07

Anonymous Перейти к последнему сообщению

В этой теме нет новых непрочитанных сообщений. Скачать торрент Обитель зла: Антология / Resident Evil (2002-2012) BDRip-AVC

в форуме Антологии, Размер: 16.64 ГБ, Здоровье: 100%

Anonymous

0
3|2

187
15

12 янв 2014, 23:14

Anonymous Перейти к последнему сообщению

В этой теме нет новых непрочитанных сообщений. Скачать торрент Обитель зла: Пенталогия / Resident Evil Pentalogy (2002-2012) BDRip 1080p

в форуме Пенталогии, Размер: 40.77 ГБ, Здоровье: 100%

Anonymous

0
80|29

214
241

09 фев 2014, 09:26

Anonymous Перейти к последнему сообщению

В этой теме нет новых непрочитанных сообщений. Скачать торрент Проверен Обитель Зла: Проклятие 3Д/ Resident Evil: Damnation 3D (Макото Камия / Makoto Kamiya) [2012, мультфильм, ужасы, фантастика, BDRip-AVC] Half SideBySide / Горизонтальная анаморфная стереопара

в форуме 3D Мультфильмы, Размер: 7.8 ГБ, Здоровье: 0%

Anonymous

0
0|0

5
0

07 сен 2016, 17:57

Anonymous Перейти к последнему сообщению



Сейчас этот форум просматривают: нет зарегистрированных пользователей и гости: 1


Вы не можете начинать темы
Вы не можете отвечать на сообщения
Вы не можете редактировать свои сообщения
Вы не можете удалять свои сообщения
Вы не можете добавлять вложения

Перейти:  

!ВНИМАНИЕ!
 Ресурс не предоставляет электронные версии произведений, а занимается лишь коллекционированием и каталогизацией ссылок, присылаемых и публикуемых на форуме нашими читателями. Если вы являетесь правообладателем какого-либо представленного материала и не желаете чтобы ссылка на него находилась в нашем каталоге, свяжитесь с нами и мы незамедлительно удалим её. Файлы для обмена на трекере предоставлены пользователями сайта, и администрация не несёт ответственности за их содержание. Просьба не заливать файлы, защищенные авторскими правами, а также файлы нелегального содержания!