На всех торрентах на трекере установлена скидка на скачивание в размере 100 процентов(а).
 Возможность скачивания торрента НЕ зависит от ограничений при низком ратио, низком аплоаде, требуемом ратио или требуемом аплоаде.


Начать новую тему Ответить на тему
Статистика раздачи
Размер: 4.37 ГБ | Добавлен: 03 дек 2013, 23:15 | Скачали: 0
Сидеров: 0  [0 байт/сек]    Личеров: 0  [0 байт/сек]
Пред. тема | След. тема 

Автор
Сообщение

СообщениеДобавлено: 03 дек 2013, 23:15 

Название: Разборка в Бронксе
Оригинальное название: Rumble In The Bronx (Hong faan kui)
Год выхода: 1995
Жанр: Боевик, триллер, комедия, криминал
Режиссер: Стэнли Тонг

В ролях: Джеки Чан, Анита Муи, Франсуаза Йип, Билл Тун, Марк Экерстрим, Гарвин Кросс, Морган Лам, Эйлен Сит, Чан Ман Чинг, Фред Андруччи

О фильме:
Кеунг, полицейский из Гонконга, приезжает к своему дяде в Америку на свадьбу. Дядя как раз продал свой супермаркет красивой китаянке, ни слова не сказав новой хозяйке о том, что на магазин имеют виды бандиты, и уехал. Кеунг, конечно же, заступается за симпатичную бизнес-леди и устраивает рэкетирам разборку. Но на этом подвиги азиатского полицейского в нью-йоркских кварталах не заканчиваются! Кеунг начинает жесткое противостояние гангстерам в деле о пропаже бриллиантов…



Страна: Гонконг, Канада
Выпущено: Golden Harvest Company, Maple Ridge Films, New Line Cinema
Продолжительность: 01:28:34
Перевод: Профессиональный (Многоголосый закадровый)


Кодек: x264
Формат: MKV
Качество: BDRip 1080p
Видео: AVC (High@L4.1) 1920x800 (2.40:1), 23.976 fps, 6430 kbps, 0,175 Bits/(Pixel*Frame)
Аудио: Dolby Digital (AC-3) 5.1 ch, 640 kbps
Субтитры: Русские

The encoding settings: Hi-Fi

General
Unique ID : 240568641954871371240298726059772387465 (0xB4FBD5CA90A07E73945F5C24EC82A089)
Format : Matroska
Format version : Version 2
File size : 4.37 GiB
Duration : 1h 28mn
Overall bit rate : 7 060 Kbps
Movie name : Разборка в Бронксе (1995) BDRip (1080p)
Encoded date : UTC 2012-10-18 08:11:17
Writing application : mkvmerge v5.8.0 ('No Sleep / Pillow') built on Sep 2 2012 15:37:04
Writing library : libebml v1.2.3 + libmatroska v1.3.0

Video
ID : 1
Format : AVC
Format/Info : Advanced Video Codec
Format profile : High@L4.1
Format settings, CABAC : Yes
Format settings, ReFrames : 5 frames
Codec ID : V_MPEG4/ISO/AVC
Duration : 1h 28mn
Bit rate : 6 430 Kbps
Width : 1 920 pixels
Height : 800 pixels
Display aspect ratio : 2.40:1
Frame rate mode : Constant
Frame rate : 23.976 fps
Color space : YUV
Chroma subsampling : 4:2:0
Bit depth : 8 bits
Scan type : Progressive
Bits/(Pixel*Frame) : 0.175
Stream size : 3.89 GiB (89%)
Title : Release by Alex260680
Writing library : x264 core 128 r2216M 198a7ea
Encoding settings : cabac=1 / ref=5 / deblock=1:0:0 / analyse=0x3:0x133 / me=umh / subme=11 / psy=1 / psy_rd=1.00:0.10 / mixed_ref=1 / me_range=48 / chroma_me=1 / trellis=2 / 8x8dct=1 / cqm=0 / deadzone=21,11 / fast_pskip=0 / chroma_qp_offset=-3 / threads=12 / lookahead_threads=2 / sliced_threads=0 / nr=0 / decimate=0 / interlaced=0 / bluray_compat=0 / constrained_intra=0 / bframes=5 / b_pyramid=2 / b_adapt=2 / b_bias=0 / direct=3 / weightb=1 / open_gop=0 / weightp=2 / keyint=240 / keyint_min=23 / scenecut=40 / intra_refresh=0 / rc=2pass / mbtree=0 / bitrate=6430 / ratetol=1.0 / qcomp=0.60 / qpmin=0 / qpmax=69 / qpstep=4 / cplxblur=20.0 / qblur=0.5 / ip_ratio=1.40 / pb_ratio=1.30 / aq=1:0.90
Language : English
Default : Yes
Forced : No

Audio
ID : 2
Format : AC-3
Format/Info : Audio Coding 3
Mode extension : CM (complete main)
Format settings, Endianness : Big
Codec ID : A_AC3
Duration : 1h 28mn
Bit rate mode : Constant
Bit rate : 640 Kbps
Channel(s) : 6 channels
Channel positions : Front: L C R, Side: L R, LFE
Sampling rate : 48.0 KHz
Bit depth : 16 bits
Compression mode : Lossy
Stream size : 406 MiB (9%)
Title : Профессиональный (Многоголосый закадровый)
Language : Russian
Default : Yes
Forced : No

Text
ID : 3
Format : UTF-8
Codec ID : S_TEXT/UTF8
Codec ID/Info : UTF-8 Plain Text
Language : Russian
Default : No
Forced : No

Menu
00:00:00.000 : en:Chapter01
00:00:00.625 : en:Chapter02
00:01:56.116 : en:Chapter03
00:05:20.278 : en:Chapter04
00:10:44.935 : en:Chapter05
00:13:52.039 : en:Chapter06
00:16:19.812 : en:Chapter07
00:21:55.063 : en:Chapter08
00:27:01.786 : en:Chapter09
00:30:34.874 : en:Chapter10
00:35:35.049 : en:Chapter11
00:44:38.926 : en:Chapter12
00:48:08.051 : en:Chapter13
00:49:45.816 : en:Chapter14
00:52:02.202 : en:Chapter15
00:57:55.346 : en:Chapter16
01:02:48.473 : en:Chapter17
01:07:32.840 : en:Chapter18
01:13:07.633 : en:Chapter19
01:16:00.931 : en:Chapter20
01:21:04.526 : en:Chapter21
01:22:49.172 : en:Chapter22
01:26:03.992 : en:Chapter23



Релиз от: Alex260680
загрузка...
Правила, инструкции, FAQ!!!
Торрент  Добавлен [03 дек 2013, 23:15] Скачать торрент
Скачать торрент
[ Размер 11.54 КБ / Просмотров 4 ]

Статус  
 
Размер  4.37 ГБ
Приватный: Нет (DHT включён)
.torrent скачан  0
Как залить торрент? | Как скачать Torrent? | Как смотреть и слушать онлайн?  


     Отправить личное сообщение
   
Страница 1 из 1
Показать сообщения за:  Поле сортировки  
Начать новую тему Ответить на тему

   Похожие торренты   Автор   Ответы   Просмотры   Последнее сообщение 
В этой теме нет новых непрочитанных сообщений. Скачать торрент Проверен Air Supply - Live In Hong Kong [2013, Rock, Pop, BDRip 1080p]

в форуме Концерты (HD-Video), Размер: 7.96 ГБ, Здоровье: 100%

Anonymous

0
5|2

0
0

23 окт 2016, 14:31

Anonymous Перейти к последнему сообщению

В этой теме нет новых непрочитанных сообщений. Скачать торрент Проверен Air Supply - Live in Hong Kong [2014, Rock, Pop, BDRip 720p]

в форуме Концерты (HD-Video), Размер: 3.5 ГБ, Здоровье: 100%

Anonymous

0
1|0

0
0

23 окт 2016, 12:23

Anonymous Перейти к последнему сообщению

В этой теме нет новых непрочитанных сообщений. Скачать торрент Схватка / Heat (1995) BDRip 1080p

в форуме 720p | 1080p, Размер: 11.55 ГБ, Здоровье: 100%

Anonymous

0
28|3

23
2

29 янв 2014, 20:10

Anonymous Перейти к последнему сообщению

В этой теме нет новых непрочитанных сообщений. Скачать торрент Проверен Хакеры / Hackers (1995) BDRip 1080p

в форуме 720p | 1080p, Размер: 9.78 ГБ, Здоровье: 100%

Гость

0
45|43

57
35

16 авг 2015, 19:15

Гость Перейти к последнему сообщению

В этой теме нет новых непрочитанных сообщений. Скачать торрент Проверен Наемные убийцы / Assassins (1995) BDRip 1080p

в форуме 720p | 1080p, Размер: 12.11 ГБ, Здоровье: 100%

Anonymous

0
11|3

35
53

18 дек 2014, 23:42

Anonymous Перейти к последнему сообщению



Сейчас этот форум просматривают: нет зарегистрированных пользователей и гости: 3


Вы не можете начинать темы
Вы не можете отвечать на сообщения
Вы не можете редактировать свои сообщения
Вы не можете удалять свои сообщения
Вы не можете добавлять вложения

Перейти:  

!ВНИМАНИЕ!
 Ресурс не предоставляет электронные версии произведений, а занимается лишь коллекционированием и каталогизацией ссылок, присылаемых и публикуемых на форуме нашими читателями. Если вы являетесь правообладателем какого-либо представленного материала и не желаете чтобы ссылка на него находилась в нашем каталоге, свяжитесь с нами и мы незамедлительно удалим её. Файлы для обмена на трекере предоставлены пользователями сайта, и администрация не несёт ответственности за их содержание. Просьба не заливать файлы, защищенные авторскими правами, а также файлы нелегального содержания!