На всех торрентах на трекере установлена скидка на скачивание в размере 100 процентов(а).
 Возможность скачивания торрента НЕ зависит от ограничений при низком ратио, низком аплоаде, требуемом ратио или требуемом аплоаде.


Начать новую тему Ответить на тему
Статистика раздачи
Размер: 4.5 ГБ | Добавлен: 30 ноя 2013, 10:36 | Скачали: 0
Сидеров: 0  [0 байт/сек]    Личеров: 0  [0 байт/сек]
Пред. тема | След. тема 

Автор
Сообщение

СообщениеДобавлено: 30 ноя 2013, 10:36 

Название: Мальчик большой мамочки
Оригинальное название: Big Mamma's Boy
Год выхода: 2011
Жанр: комедия
Режиссер: Франко ди Кьера

В ролях: Френк Лолито, Холли Вэлэнс, Кармелина Ди Гульельмо, Освальдо Майон, Джордж Капиньярис, Стив Музакис, Ник Фарнелл, Кассандра Маграт, Сачин Джоаб, Джим Расселл

О фильме:
35-летнего Рокко до сих пор опекает, как маленького, его пожилая мать. Причем делает это настолько назойливо, что под угрозой оказываются его отношения с любимой девушкой.



Выпущено: Австралия
Продолжительность: 01:38:06
Озвучивание: Профессиональное (многоголосое) [Нтв+]


Формат: MKV
Качество: BDRip 720p [aAF]
Видео: 5739 kb/s, 1280x720
Аудио: Russian: AC3, 192 kb/s (2 ch) / English: AC3, 640 kb/s (2 ch)
Субтитры: English

Скачать: Сэмпл

Релиз группы:



General
Big.Mammas.Boy.2011.BDRip.720p.CINEMANIA.mkv
Format : Matroska
Format version : Version 4 / Version 2
File size : 4.50 GiB
Duration : 1h 38mn
Overall bit rate : 6 571 Kbps
Movie name : Release Group CINEMANIA
Encoded date : UTC 2013-11-29 19:28:18
Writing application : mkvmerge v6.5.0 ('Isn't she lovely') built on Oct 20 2013 12:50:05
Writing library : libebml v1.3.0 + libmatroska v1.4.1

Video
ID : 1
Format : AVC
Format/Info : Advanced Video Codec
Format profile : High@L4.1
Format settings, CABAC : Yes
Format settings, ReFrames : 5 frames
Codec ID : V_MPEG4/ISO/AVC
Duration : 1h 38mn
Bit rate : 5 739 Kbps
Width : 1 280 pixels
Height : 720 pixels
Display aspect ratio : 16:9
Frame rate mode : Constant
Frame rate : 24.000 fps
Color space : YUV
Chroma subsampling : 4:2:0
Bit depth : 8 bits
Scan type : Progressive
Bits/(Pixel*Frame) : 0.259
Stream size : 3.84 GiB (85%)
Title : Release Group CINEMANIA
Writing library : x264 core 120 r2164 da19765
Encoding settings : cabac=1 / ref=5 / deblock=1:0:0 / analyse=0x3:0x133 / me=umh / subme=8 / psy=1 / psy_rd=1.00:0.00 / mixed_ref=1 / me_range=16 / chroma_me=1 / trellis=1 / 8x8dct=1 / cqm=0 / deadzone=21,11 / fast_pskip=0 / chroma_qp_offset=-2 / threads=12 / sliced_threads=0 / nr=0 / decimate=1 / interlaced=0 / bluray_compat=0 / constrained_intra=0 / bframes=3 / b_pyramid=2 / b_adapt=1 / b_bias=0 / direct=1 / weightb=1 / open_gop=0 / weightp=2 / keyint=250 / keyint_min=25 / scenecut=40 / intra_refresh=0 / rc_lookahead=40 / rc=2pass / mbtree=1 / bitrate=5739 / ratetol=1.0 / qcomp=0.60 / qpmin=0 / qpmax=69 / qpstep=4 / cplxblur=20.0 / qblur=0.5 / ip_ratio=1.40 / aq=1:1.00
Language : English
Default : Yes
Forced : No

Audio #1
ID : 2
Format : AC-3
Format/Info : Audio Coding 3
Mode extension : CM (complete main)
Format settings, Endianness : Big
Codec ID : A_AC3
Duration : 1h 38mn
Bit rate mode : Constant
Bit rate : 192 Kbps
Channel(s) : 2 channels
Channel positions : Front: L R
Sampling rate : 48.0 KHz
Bit depth : 16 bits
Compression mode : Lossy
Stream size : 135 MiB (3%)
Title : Нтв+
Language : Russian
Default : Yes
Forced : Yes

Audio #2
ID : 3
Format : AC-3
Format/Info : Audio Coding 3
Mode extension : CM (complete main)
Format settings, Endianness : Big
Codec ID : A_AC3
Duration : 1h 38mn
Bit rate mode : Constant
Bit rate : 640 Kbps
Channel(s) : 6 channels
Channel positions : Front: L C R, Side: L R, LFE
Sampling rate : 48.0 KHz
Bit depth : 16 bits
Compression mode : Lossy
Stream size : 449 MiB (10%)
Default : No
Forced : No

Text
ID : 4
Format : UTF-8
Codec ID : S_TEXT/UTF8
Codec ID/Info : UTF-8 Plain Text
Language : English
Default : No
Forced : No

загрузка...
Правила, инструкции, FAQ!!!
Торрент  Добавлен [30 ноя 2013, 10:36] Скачать торрент
Скачать торрент
[ Размер 22.99 КБ / Просмотров 5 ]

Статус  
 
Размер  4.5 ГБ
Приватный: Нет (DHT включён)
.torrent скачан  0
Как залить торрент? | Как скачать Torrent? | Как смотреть и слушать онлайн?  


     Отправить личное сообщение
   
Страница 1 из 1
Показать сообщения за:  Поле сортировки  
Начать новую тему Ответить на тему

   Похожие торренты   Автор   Ответы   Просмотры   Последнее сообщение 
В этой теме нет новых непрочитанных сообщений. Скачать торрент Мальчик в коробке / Stolen Lives (2009) BDRip-AVC 720p | L1

в форуме 720p | 1080p, Размер: 4.85 ГБ, Здоровье: 100%

Anonymous

0
1|0

16
1

29 дек 2013, 09:57

Anonymous Перейти к последнему сообщению

В этой теме нет новых непрочитанных сообщений. Скачать торрент Дом большой мамочки 2 / Big Momma's House 2 (Джон Уайтселл / John Whitesell) [2006 г., боевик, триллер, комедия, BDRip]

в форуме Боевики, Размер: 1.72 ГБ, Здоровье: 100%

Anonymous

0
17|5

64
1

20 фев 2014, 14:03

Anonymous Перейти к последнему сообщению

В этой теме нет новых непрочитанных сообщений. Скачать торрент Проверен Дом большой мамочки 2 / Big Momma's House 2 (Джон Уайтселл / John Whitesell) [2006, боевик, триллер, комедия BDRip, 480p] DUB, Original + sub (rus, eng)

в форуме Фильмы для iPod, iPhone, iPad, Размер: 1.43 ГБ, Здоровье: 100%

Гость

0
23|7

33
0

12 май 2015, 00:07

Гость Перейти к последнему сообщению

В этой теме нет новых непрочитанных сообщений. Скачать торрент Чудный Мальчик / Boy Wonder (2010) BDRip | НТВ+ | L1

в форуме Боевики, Размер: 1.98 ГБ, Здоровье: 100%

Anonymous

0
14|0

41
206

23 фев 2014, 17:12

Anonymous Перейти к последнему сообщению

В этой теме нет новых непрочитанных сообщений. Скачать торрент Проверен Рыжков Александр - Ядовитый Мальчик [Григорий Войнер (ЛИ), 2011 г., 320 кБ/с, MP3]

в форуме Российская фантастика, фэнтези, мистика, ужасы, фанфики, Размер: 47.75 МБ, Здоровье: 0%

Anonymous

0
0|0

0
0

10 сен 2016, 13:47

Anonymous Перейти к последнему сообщению



Сейчас этот форум просматривают: нет зарегистрированных пользователей и гости: 1


Вы не можете начинать темы
Вы не можете отвечать на сообщения
Вы не можете редактировать свои сообщения
Вы не можете удалять свои сообщения
Вы не можете добавлять вложения

Перейти:  

!ВНИМАНИЕ!
 Ресурс не предоставляет электронные версии произведений, а занимается лишь коллекционированием и каталогизацией ссылок, присылаемых и публикуемых на форуме нашими читателями. Если вы являетесь правообладателем какого-либо представленного материала и не желаете чтобы ссылка на него находилась в нашем каталоге, свяжитесь с нами и мы незамедлительно удалим её. Файлы для обмена на трекере предоставлены пользователями сайта, и администрация не несёт ответственности за их содержание. Просьба не заливать файлы, защищенные авторскими правами, а также файлы нелегального содержания!