На всех торрентах на трекере установлена скидка на скачивание в размере 100 процентов(а).
 Возможность скачивания торрента НЕ зависит от ограничений при низком ратио, низком аплоаде, требуемом ратио или требуемом аплоаде.


Начать новую тему Ответить на тему
Статистика раздачи
Размер: 9.98 ГБ | Добавлен: 28 ноя 2013, 21:09 | Скачали: 0
Сидеров: 0  [0 байт/сек]    Личеров: 0  [0 байт/сек]
Пред. тема | След. тема 

Автор
Сообщение

СообщениеДобавлено: 28 ноя 2013, 21:09 

Название ... : Перси Джексон и Море чудовищ
Оригинальное название ... : Percy Jackson: Sea of Monsters
Страна ... : США
Жанр ............. : Фэнтези | Приключения
Режиссер ... : Тор Фройденталь
Перевод ... : Дубляж (Профессиональный[BD CEE]) + Украинский + Оригинал (Английский)
Субтитры ... : Русские / Английские UTF-8 (full)
Навигация по главам...: есть


В ролях:

Логан Лерман .... Percy Jackson
Александра Даддарио .... Annabeth
Дуглас Смит .... Tyson
Ливэн Рамбин .... Clarisse
Брэндон Т. Джексон .... Grover
Описание:

Лагерь полукровок атакует Люк Кастеллан, который раскрывает свои планы по уничтожению горы Олимп. Наставник Перси, Хирон узнает, что Люк отравил волшебное дерево, которое отвечает за барьер, защищающий Лагерь Полукровок, и которое создано из Талии Грейс, дочери Зевса, убитой циклопом. Аннабет Чейз выясняет, что Золотое Руно может восстановить дерево, и директор лагеря, Дионис, посылает Клариссу Ла Ру, дочь Ареса и соперницу Перси, найти его…




Год выхода ............. : 2013
Формат ................. : Mkv
Продолжительность ...... : 1 hour 46 mins 07 Secs
Битрейт .. : ~ 11.7 Mbps
Профиль формата.....: High/Level 4.1
Идентификатор кодека ....... : MPEG-4 AVC
Ширина ....... : 1920 Pixels
Высота ....... : 816 Pixels
Частота кадров ............ : 23.976 fps
Соотношение сторон ........ : 2.35:1
Аудио кодек /Битрейт ....... : AC3 / 448 Kbps
Канальность / Частота ..... : 6 channels / 48.0 KHz
Исходник ......... : 1080p.BluRay.AVC.DTS-HD.MA.7.1-PublicHD

Сэмпл
http://check2pic.ru/compare/32684/
Sourse..........................Rip


x264 [info]: frame I:1068 Avg QP:16.40 size:242669
x264 [info]: frame P:32054 Avg QP:17.78 size:102901
x264 [info]: frame B:119542 Avg QP:19.96 size: 49600
x264 [info]: consecutive B-frames: 1.6% 1.6% 10.5% 12.0% 15.7% 54.2% 4.4%
--------------------------------------------------------------------------------
Format : Matroska
Format version : Version 2
File size : 9.98 GiB
Duration : 1h 46mn
Overall bit rate : 13.5 Mbps
Movie name : avt83@DHT-Movies
Encoded date : UTC 2013-11-28 16:28:01
Writing application : mkvmerge v4.0.0 ('The Stars were mine') сборка от Jun 6 2010 16:18:42
Writing library : libebml v1.0.0 + libmatroska v1.0.0

Video
ID : 1
Format : AVC
Format/Info : Advanced Video Codec
Format profile : High@L4.1
Format settings, CABAC : Yes
Format settings, ReFrames : 5 frames
Codec ID : V_MPEG4/ISO/AVC
Duration : 1h 46mn
Bit rate : 11.7 Mbps
Width : 1 920 pixels
Height : 816 pixels
Display aspect ratio : 2.35:1
Frame rate mode : Constant
Frame rate : 23.976 fps
Color space : YUV
Chroma subsampling : 4:2:0
Bit depth : 8 bits
Scan type : Progressive
Bits/(Pixel*Frame) : 0.310
Stream size : 8.64 GiB (87%)
Writing library : x264 core 138 r2359+704+48 3f879a0 tMod [8-bit@all X86]
Encoding settings : cabac=1 / ref=5 / deblock=1:-2:-1 / analyse=0x3:0x113 / me=umh / subme=11 / psy=1 / fade_compensate=0.00 / psy_rd=1.05:0.03 / mixed_ref=1 / me_range=48 / chroma_me=1 / trellis=2 / 8x8dct=1 / cqm=0 / deadzone=21,11 / fast_pskip=0 / chroma_qp_offset=-3 / threads=8 / lookahead_threads=1 / sliced_threads=0 / nr=0 / decimate=1 / interlaced=0 / bluray_compat=0 / constrained_intra=0 / fgo=0 / bframes=6 / b_pyramid=2 / b_adapt=2 / b_bias=0 / direct=1 / weightb=1 / open_gop=0 / weightp=2 / keyint=240 / keyint_min=23 / scenecut=40 / intra_refresh=0 / rc_lookahead=40 / rc=crf / mbtree=0 / crf=18.5000 / qcomp=0.70 / qpmin=0:0:0 / qpmax=69:69:69 / qpstep=4 / vbv_maxrate=50000 / vbv_bufsize=62500 / crf_max=0.0 / nal_hrd=none / ip_ratio=1.40 / pb_ratio=1.30 / aq=2:0.90 / aq-sensitivity=10.00 / aq-factor=1.00:1.00:1.00 / aq2=0 / aq3=0
Language : English
Default : No
Forced : No

Audio #1
ID : 2
Format : AC-3
Format/Info : Audio Coding 3
Mode extension : CM (complete main)
Format settings, Endianness : Big
Codec ID : A_AC3
Duration : 1h 46mn
Bit rate mode : Constant
Bit rate : 448 Kbps
Channel count : 6 channels
Channel positions : Front: L C R, Side: L R, LFE
Sampling rate : 48.0 KHz
Bit depth : 16 bits
Compression mode : Lossy
Stream size : 340 MiB (3%)
Title : Дубляж BD CEE
Language : Russian
Default : Yes
Forced : Yes

Audio #2
ID : 3
Format : AC-3
Format/Info : Audio Coding 3
Mode extension : CM (complete main)
Format settings, Endianness : Big
Codec ID : A_AC3
Duration : 1h 46mn
Bit rate mode : Constant
Bit rate : 448 Kbps
Channel count : 6 channels
Channel positions : Front: L C R, Side: L R, LFE
Sampling rate : 48.0 KHz
Bit depth : 16 bits
Compression mode : Lossy
Stream size : 340 MiB (3%)
Title : Украинский
Language : Ukrainian
Default : No
Forced : No

Audio #3
ID : 4
Format : AC-3
Format/Info : Audio Coding 3
Mode extension : CM (complete main)
Format settings, Endianness : Big
Codec ID : A_AC3
Duration : 1h 46mn
Bit rate mode : Constant
Bit rate : 640 Kbps
Channel count : 6 channels
Channel positions : Front: L C R, Side: L R, LFE
Sampling rate : 48.0 KHz
Bit depth : 16 bits
Compression mode : Lossy
Stream size : 486 MiB (5%)
Title : Оригинал
Language : English
Default : No
Forced : No

Text #1
ID : 5
Format : UTF-8
Codec ID : S_TEXT/UTF8
Codec ID/Info : UTF-8 Plain Text
Title : full
Language : Russian
Default : Yes
Forced : No

Text #2
ID : 6
Format : UTF-8
Codec ID : S_TEXT/UTF8
Codec ID/Info : UTF-8 Plain Text
Title : full
Language : Ukrainian
Default : No
Forced : No

Text #3
ID : 7
Format : UTF-8
Codec ID : S_TEXT/UTF8
Codec ID/Info : UTF-8 Plain Text
Title : full
Language : English
Default : No
Forced : No

Menu
00:00:00.000 : en:00:00:00.000
00:04:05.454 : en:00:04:05.454
00:06:43.069 : en:00:06:43.069
00:09:31.696 : en:00:09:31.696
00:13:53.124 : en:00:13:53.124
00:19:17.156 : en:00:19:17.156
00:20:48.038 : en:00:20:48.038
00:22:10.496 : en:00:22:10.496
00:25:30.529 : en:00:25:30.529
00:28:22.826 : en:00:28:22.826
00:30:27.534 : en:00:30:27.534
00:33:19.998 : en:00:33:19.998
00:37:01.261 : en:00:37:01.261
00:39:49.596 : en:00:39:49.596
00:45:16.380 : en:00:45:16.380
00:48:50.177 : en:00:48:50.177
00:52:42.951 : en:00:52:42.951
00:56:35.100 : en:00:56:35.100
01:00:19.866 : en:01:00:19.866
01:03:35.895 : en:01:03:35.895
01:05:40.687 : en:01:05:40.687
01:10:41.696 : en:01:10:41.696
01:12:32.181 : en:01:12:32.181
01:16:52.817 : en:01:16:52.817
01:19:39.441 : en:01:19:39.441
01:23:01.768 : en:01:23:01.768
01:25:45.807 : en:01:25:45.807
01:29:54.264 : en:01:29:54.264
01:32:47.312 : en:01:32:47.312
01:34:25.243 : en:01:34:25.243
01:36:07.971 : en:01:36:07.971
01:37:39.187 : en:01:37:39.187
01:46:07.111 : en:01:46:07.111


загрузка...
Правила, инструкции, FAQ!!!
Торрент  Добавлен [28 ноя 2013, 21:09] Скачать торрент
Скачать торрент
[ Размер 25.48 КБ / Просмотров 13 ]

Статус  
 
Размер  9.98 ГБ
Приватный: Нет (DHT включён)
.torrent скачан  0
Как залить торрент? | Как скачать Torrent? | Как смотреть и слушать онлайн?  


     Отправить личное сообщение
   
Страница 1 из 1
Показать сообщения за:  Поле сортировки  
Начать новую тему Ответить на тему

   Похожие торренты   Автор   Ответы   Просмотры   Последнее сообщение 
В этой теме нет новых непрочитанных сообщений. Скачать торрент Проверен [iPad] Перси Джексон и Море чудовищ / Percy Jackson: Sea of Monsters (Тор Фройденталь / Thor Freudenthal ) [2013, США, фэнтези, приключения, семейный, BDRip, SD (576p)] DUB (Line) + Original + sub (eng)

в форуме Фильмы для iPod, iPhone, iPad, Размер: 1.85 ГБ, Здоровье: 100%

Гость

0
20|7

28
0

14 май 2015, 00:04

Гость Перейти к последнему сообщению

В этой теме нет новых непрочитанных сообщений. Скачать торрент [VIDEO] Перси Джексон и Море чудовищ / Percy Jackson: Sea of Monsters (Тор Фройденталь) [2013, фэнтези, приключения, семейный, HDRip] [MP4, 640x] Dub

в форуме Видео для смартфонов и КПК, Размер: 918.54 МБ, Здоровье: 100%

Anonymous

0
22|7

71
0

30 янв 2014, 06:47

Anonymous Перейти к последнему сообщению

В этой теме нет новых непрочитанных сообщений. Скачать торрент [VIDEO] Перси Джексон и Море чудовищ / Percy Jackson: Sea of Monsters (Тор Фройденталь / Thor Freudenthal) [2013, Фэнтези, приключения, семейный, HDRip] [MP4, 960x] Dub, Original

в форуме Видео для смартфонов и КПК, Размер: 1.18 ГБ, Здоровье: 100%

Anonymous

0
43|14

77
0

30 янв 2014, 06:47

Anonymous Перейти к последнему сообщению

В этой теме нет новых непрочитанных сообщений. Скачать торрент Проверен Чарльз Перси Сноу / Charles Percy Snow - Сборник произведений [1977-2003, FB2+RTF]

в форуме Зарубежная литература (XX и XXI век), Размер: 10.75 МБ, Здоровье: 100%

Anonymous

0
16|4

15
1

08 сен 2016, 20:18

Anonymous Перейти к последнему сообщению

В этой теме нет новых непрочитанных сообщений. Скачать торрент Проверен [MP4 960x540] Майкл Джексон "Earth Song" / Michael Jackson "Earth Song" / Клип из фильма Майкл Джексон: Вот и всё / This Is It (2009) BDRip

в форуме Видео для смартфонов и КПК, Размер: 83.12 МБ, Здоровье: ???%

Anonymous

0
0|20

146
0

25 окт 2014, 23:19

Anonymous Перейти к последнему сообщению



Сейчас этот форум просматривают: нет зарегистрированных пользователей и гости: 1


Вы не можете начинать темы
Вы не можете отвечать на сообщения
Вы не можете редактировать свои сообщения
Вы не можете удалять свои сообщения
Вы не можете добавлять вложения

Перейти:  

!ВНИМАНИЕ!
 Ресурс не предоставляет электронные версии произведений, а занимается лишь коллекционированием и каталогизацией ссылок, присылаемых и публикуемых на форуме нашими читателями. Если вы являетесь правообладателем какого-либо представленного материала и не желаете чтобы ссылка на него находилась в нашем каталоге, свяжитесь с нами и мы незамедлительно удалим её. Файлы для обмена на трекере предоставлены пользователями сайта, и администрация не несёт ответственности за их содержание. Просьба не заливать файлы, защищенные авторскими правами, а также файлы нелегального содержания!