На всех торрентах на трекере установлена скидка на скачивание в размере 100 процентов(а).
 Возможность скачивания торрента НЕ зависит от ограничений при низком ратио, низком аплоаде, требуемом ратио или требуемом аплоаде.


Начать новую тему Ответить на тему
Статистика раздачи
Размер: 2.72 ГБ | Добавлен: 27 ноя 2013, 09:18 | Скачали: 30
Сидеров: 10  [0 байт/сек]    Личеров: 4  [0 байт/сек]
Пред. тема | След. тема 

Автор
Сообщение

СообщениеДобавлено: 27 ноя 2013, 09:18 

Название: В спальне
Оригинальное название: In the Bedroom
Год выхода: 2001
Жанр: Драма, криминал
Режиссер: Тодд Филд

В ролях: Том Уилкинсон, Сисси Спейсек, Ник Стал, Мариса Томей, Уильям Мапотер, Уильям Уайз, Селия Уэстон, Карен Аллен, Фрэнк Т. Уэллс, У. Клэпэм Мюррей, Джастин Эшфорт, Терри А. Бургесс, Камден Мансон, Кевин Чэпмен, Вероника Картрайт, Даран Норрис

О фильме:
Совсем еще мальчишка (студент колледжа) приезжает на каникулы домой и влюбляется в Натали, женщину, которая намного старше его. Это начинается, как обычный летний роман, а в конце лета они расстанутся и забудут друг друга. В это верит он сам и пытается заставить поверить своих родителей.



Страна: США
Студия: Good Machine, GreeneStreet Films Inc., Standard Film Company
Продолжительность: 02:11:03
Перевод: Профессиональный многоголосый


Кодек: MPEG-4 AVC
Качество: WEB-DLRip (AVC)
Видео: 2136 Кбит/с, 1024×432
Звук: Русский (AC3, 6 ch, 448 Кбит/с), английский (AC3, 6 ch, 384 Кбит/с)
Субтитры: Русские, английские

Рип от StarbirS
За исходник спасибо d0ber.maNN

Аудио: Russian: 48 kHz, AC3, 3/2 (L,C,R,l,r) + LFE ch, ~448.00 kbps avg - дублированный
Аудио: English: 48 kHz, AC3, 3/2 (L,C,R,l,r) + LFE ch, ~384.00 kbps avg - оригинал

Субтитры: русские, английские

x264 [info]: frame I:1366 Avg QP:16.11 size: 74735
x264 [info]: frame P:71281 Avg QP:18.90 size: 22278
x264 [info]: frame B:115872 Avg QP:21.09 size: 3518
x264 [info]: consecutive B-frames: 8.5% 27.9% 16.6% 27.4% 16.2% 1.5% 0.6% 0.2% 1.1%

Формат : Matroska
Версия формата : Version 4 / Version 2
Размер файла : 2,72 Гбайт
Продолжительность : 2 ч. 11 м.
Общий поток : 2968 Кбит/сек
Название фильма : In.the.Bedroom.2001.P.WEB-DLRip.(AVC).by.StarbirS
Дата кодирования : UTC 2013-11-26 16:45:30
Программа кодирования : mkvmerge v6.3.0 ('You can't stop me!') built on Jun 28 2013 20:09:41
Библиотека кодирования : libebml v1.3.0 + libmatroska v1.4.0

Видео
Идентификатор : 1
Формат : AVC
Формат/Информация : Advanced Video Codec
Профиль формата : High@L4.1
Параметр CABAC формата : Да
Параметр ReFrames формата : 11 кадров
Идентификатор кодека : V_MPEG4/ISO/AVC
Продолжительность : 2 ч. 11 м.
Битрейт : 2136 Кбит/сек
Ширина : 1024 пикселя
Высота : 432 пикселя
Соотношение сторон : 2,40:1
Режим частоты кадров : Постоянный
Частота кадров : 23,976 кадра/сек
Цветовое пространство : YUV
Субдискретизация насыщенности : 4:2:0
Битовая глубина : 8 бит
Тип развёртки : Прогрессивная
Бит/(Пиксели*Кадры) : 0.201
Размер потока : 1,90 Гбайт (70%)
Заголовок : In.the.Bedroom.2001.P.WEB-DLRip.(AVC).by.StarbirS
Библиотека кодирования : x264 core 130 r2273 b3065e6
Настройки программы : cabac=1 / ref=11 / deblock=1:-3:-3 / analyse=0x3:0x133 / me=umh / subme=10 / psy=1 / psy_rd=1.00:0.15 / mixed_ref=1 / me_range=32 / chroma_me=1 / trellis=2 / 8x8dct=1 / cqm=0 / deadzone=21,11 / fast_pskip=0 / chroma_qp_offset=-3 / threads=6 / lookahead_threads=1 / sliced_threads=0 / nr=0 / decimate=1 / interlaced=0 / bluray_compat=0 / constrained_intra=0 / bframes=8 / b_pyramid=2 / b_adapt=1 / b_bias=0 / direct=3 / weightb=1 / open_gop=1 / weightp=2 / keyint=240 / keyint_min=23 / scenecut=40 / intra_refresh=0 / rc_lookahead=50 / rc=2pass / mbtree=1 / bitrate=2136 / ratetol=1.0 / qcomp=0.60 / qpmin=0 / qpmax=69 / qpstep=4 / cplxblur=20.0 / qblur=0.5 / ip_ratio=1.40 / aq=1:1.00
Язык : English
Default : Да
Forced : Нет
Основные цвета : BT.709
Характеристики трансфера : BT.709
Коэффициенты матрицы : BT.709

Аудио #1
Идентификатор : 2
Формат : AC-3
Формат/Информация : Audio Coding 3
Расширение режима : CM (complete main)
Параметр Endianness формата : Big
Идентификатор кодека : A_AC3
Продолжительность : 2 ч. 11 м.
Вид битрейта : Постоянный
Битрейт : 448 Кбит/сек
Каналы : 6 каналов
Расположение каналов : Front: L C R, Side: L R, LFE
Частота : 48,0 КГц
Битовая глубина : 16 бит
Метод сжатия : С потерями
Размер потока : 420 Мбайт (15%)
Заголовок : Профессиональный многоголосый (R5)
Язык : Russian
Default : Да
Forced : Нет

Аудио #2
Идентификатор : 3
Формат : AC-3
Формат/Информация : Audio Coding 3
Расширение режима : CM (complete main)
Параметр Endianness формата : Big
Идентификатор кодека : A_AC3
Продолжительность : 2 ч. 11 м.
Вид битрейта : Постоянный
Битрейт : 384 Кбит/сек
Каналы : 6 каналов
Расположение каналов : Front: L C R, Side: L R, LFE
Частота : 48,0 КГц
Битовая глубина : 16 бит
Метод сжатия : С потерями
Размер потока : 360 Мбайт (13%)
Заголовок : Оригинал
Язык : English
Default : Нет
Forced : Нет

Текст #1
Идентификатор : 4
Формат : UTF-8
Идентификатор кодека : S_TEXT/UTF8
Идентификатор кодека/Информация : UTF-8 Plain Text
Заголовок : Русские
Язык : Russian
Default : Нет
Forced : Нет

Текст #2
Идентификатор : 5
Формат : UTF-8
Идентификатор кодека : S_TEXT/UTF8
Идентификатор кодека/Информация : UTF-8 Plain Text
Заголовок : Английские
Язык : English
Default : Нет
Forced : Нет

Меню
00:00:00.000 : en:Opening
00:07:35.000 : en:Duncan's Birthday
00:13:57.000 : en:"A Summer Thing"
00:18:07.000 : en:Milk And Cookies
00:22:33.000 : en:Call Them
00:26:33.000 : en:High Stakes
00:35:48.000 : en:The Call
00:40:30.000 : en:Wake
00:51:49.000 : en:Trial
01:08:05.000 : en:Morning Papers
01:12:35.000 : en:The Cabin
01:15:05.000 : en:A Boy's Will
01:17:43.000 : en:Hauling Traps
01:20:51.000 : en:Sticks & Stones
01:37:43.000 : en:Labor Day
01:59:18.000 : en:Waiting Up
02:06:55.000 : en:End Credits


загрузка...
Правила, инструкции, FAQ!!!
Торрент  Добавлен [27 ноя 2013, 09:18] Скачать торрент
Скачать торрент
[ Размер 14.01 КБ / Просмотров 5 ]

Статус  
 
Размер  2.72 ГБ
Приватный: Нет (DHT включён)
.torrent скачан  30
Как залить торрент? | Как скачать Torrent? | Как смотреть и слушать онлайн?  


     Отправить личное сообщение
   
Страница 1 из 1
Показать сообщения за:  Поле сортировки  
Начать новую тему Ответить на тему

   Похожие торренты   Автор   Ответы   Просмотры   Последнее сообщение 
В этой теме нет новых непрочитанных сообщений. Скачать торрент В спальне / In the Bedroom (2001) HDRip | Р

в форуме Драмы, Мелодрамы, Размер: 1.45 ГБ, Здоровье: 100%

Anonymous

0
17|4

14
84

22 дек 2013, 15:53

Anonymous Перейти к последнему сообщению

В этой теме нет новых непрочитанных сообщений. Скачать торрент Проверен Час пик 2 / Rush Hour 2 (2001) WEB-DLRip | D

в форуме Боевики, Размер: 1.45 ГБ, Здоровье: 100%

Anonymous

0
108|15

95
79

30 мар 2015, 18:48

Anonymous Перейти к последнему сообщению

В этой теме нет новых непрочитанных сообщений. Скачать торрент Журнал | Nuts. The Best of Bedroom Babes vol.1 (2013) [PDF] [En]

в форуме Мужские журналы, Размер: 47.86 МБ, Здоровье: 23%

Anonymous

0
17|73

100
6

09 мар 2014, 11:01

Anonymous Перейти к последнему сообщению

В этой теме нет новых непрочитанных сообщений. Скачать торрент Проверен Крысиные бега / Rat Race (2001) WEB-DLRip

в форуме Комедии, Размер: 1.46 ГБ, Здоровье: 100%

Anonymous

0
145|31

32
258

31 окт 2014, 20:38

Anonymous Перейти к последнему сообщению

В этой теме нет новых непрочитанных сообщений. Скачать торрент Проверен Окно спальни / The Bedroom Window (1986) DVDRip [H.264]

в форуме Триллеры, Размер: 1.45 ГБ, Здоровье: 100%

Anonymous

0
10|10

58
0

10 сен 2014, 09:36

Anonymous Перейти к последнему сообщению



Сейчас этот форум просматривают: нет зарегистрированных пользователей и гости: 2


Вы не можете начинать темы
Вы не можете отвечать на сообщения
Вы не можете редактировать свои сообщения
Вы не можете удалять свои сообщения
Вы не можете добавлять вложения

Перейти:  

!ВНИМАНИЕ!
 Ресурс не предоставляет электронные версии произведений, а занимается лишь коллекционированием и каталогизацией ссылок, присылаемых и публикуемых на форуме нашими читателями. Если вы являетесь правообладателем какого-либо представленного материала и не желаете чтобы ссылка на него находилась в нашем каталоге, свяжитесь с нами и мы незамедлительно удалим её. Файлы для обмена на трекере предоставлены пользователями сайта, и администрация не несёт ответственности за их содержание. Просьба не заливать файлы, защищенные авторскими правами, а также файлы нелегального содержания!