На всех торрентах на трекере установлена скидка на скачивание в размере 100 процентов(а).
 Возможность скачивания торрента НЕ зависит от ограничений при низком ратио, низком аплоаде, требуемом ратио или требуемом аплоаде.


Начать новую тему Ответить на тему
Статистика раздачи
Размер: 4.85 ГБ | Добавлен: 25 ноя 2013, 17:24 | Скачали: 0
Сидеров: 0  [0 байт/сек]    Личеров: 0  [0 байт/сек]
Пред. тема | След. тема 

Автор
Сообщение

СообщениеДобавлено: 25 ноя 2013, 17:24 

Название: Опасная банда Осс
Оригинальное название: De Bende van Oss / The Gangs of Oss
Год выхода: 2011
Жанр: драма, криминал
Режиссер: Андре ван Дарен

В ролях: Матиас Скунартс, Сильвия Хукс, Джульетт Ван Арденн, Дан Шурманс, Пьер Бокма, Беня Бружнинг, Деннис Оверем, Фрэнк Ламмерс

О фильме:
Действие фильма происходит в 1930-е годы в маленьком голландском городке. Йоханна хочет порвать с преступным миром, который ее окружает. Но чем активнее она пытается это сделать, тем сильнее оказывается втянутой в дела банды, где состоит ее муж...


Выпущено: Нидерланды
Продолжительность: 01:51:30
Озвучивание:
Профессиональное (многоголосое) [Нтв+]
Любительское (одноголосое) [den904]


Формат: MKV
Качество: BDRip 720p [DON]
Видео: 4950 kb/s, 1280x536
Аудио:
Russian [Нтв+]: AC3, 192 kb/s (2 ch)
Russian [den904]: AC3, 448 kb/s (6 ch)
Dutch: AC3, 640 kb/s (6 ch)
Субтитры: English
Дополнительно: Сохранены оригинальные чаптеры как на Blu-Ray

Скачать: Сэмпл

Релиз группы:



General
The.Gangs.of.Oss.2011.BDRip.720p.CINEMANIA.mkv
Format : Matroska
Format version : Version 4 / Version 2
File size : 4.85 GiB
Duration : 1h 51mn
Overall bit rate : 6 229 Kbps
Movie name : Release Group CINEMANIA
Encoded date : UTC 2013-11-24 20:49:40
Writing application : mkvmerge v6.5.0 ('Isn't she lovely') built on Oct 20 2013 12:50:05
Writing library : libebml v1.3.0 + libmatroska v1.4.1

Video
ID : 1
Format : AVC
Format/Info : Advanced Video Codec
Format profile : High@L4.1
Format settings, CABAC : Yes
Format settings, ReFrames : 12 frames
Codec ID : V_MPEG4/ISO/AVC
Duration : 1h 51mn
Bit rate : 4 950 Kbps
Width : 1 280 pixels
Height : 536 pixels
Display aspect ratio : 2.40:1
Frame rate mode : Constant
Frame rate : 24.000 fps
Color space : YUV
Chroma subsampling : 4:2:0
Bit depth : 8 bits
Scan type : Progressive
Bits/(Pixel*Frame) : 0.301
Stream size : 3.76 GiB (77%)
Title : Release Group CINEMANIA
Writing library : x264 core 120 r2120 0c7dab9
Encoding settings : cabac=1 / ref=12 / deblock=1:-3:-3 / analyse=0x3:0x133 / me=tesa / subme=10 / psy=1 / psy_rd=1.05:0.05 / mixed_ref=1 / me_range=24 / chroma_me=1 / trellis=2 / 8x8dct=1 / cqm=0 / deadzone=21,11 / fast_pskip=0 / chroma_qp_offset=-3 / threads=12 / sliced_threads=0 / nr=0 / decimate=0 / interlaced=0 / bluray_compat=0 / constrained_intra=0 / bframes=7 / b_pyramid=2 / b_adapt=2 / b_bias=0 / direct=3 / weightb=1 / open_gop=0 / weightp=2 / keyint=250 / keyint_min=24 / scenecut=40 / intra_refresh=0 / rc_lookahead=150 / rc=2pass / mbtree=1 / bitrate=4950 / ratetol=1.0 / qcomp=0.60 / qpmin=0 / qpmax=69 / qpstep=4 / cplxblur=20.0 / qblur=0.5 / ip_ratio=1.40 / aq=1:0.85
Language : Dutch
Default : Yes
Forced : No

Audio #1
ID : 2
Format : AC-3
Format/Info : Audio Coding 3
Mode extension : CM (complete main)
Format settings, Endianness : Big
Codec ID : A_AC3
Duration : 1h 51mn
Bit rate mode : Constant
Bit rate : 192 Kbps
Channel(s) : 2 channels
Channel positions : Front: L R
Sampling rate : 48.0 KHz
Bit depth : 16 bits
Compression mode : Lossy
Stream size : 153 MiB (3%)
Title : Нтв+
Language : Russian
Default : Yes
Forced : Yes

Audio #2
ID : 3
Format : AC-3
Format/Info : Audio Coding 3
Mode extension : CM (complete main)
Format settings, Endianness : Big
Codec ID : A_AC3
Duration : 1h 51mn
Bit rate mode : Constant
Bit rate : 448 Kbps
Channel(s) : 6 channels
Channel positions : Front: L C R, Side: L R, LFE
Sampling rate : 48.0 KHz
Bit depth : 16 bits
Compression mode : Lossy
Stream size : 357 MiB (7%)
Title : den904
Language : Russian
Default : No
Forced : No

Audio #3
ID : 4
Format : AC-3
Format/Info : Audio Coding 3
Mode extension : CM (complete main)
Format settings, Endianness : Big
Codec ID : A_AC3
Duration : 1h 51mn
Bit rate mode : Constant
Bit rate : 640 Kbps
Channel(s) : 6 channels
Channel positions : Front: L C R, Side: L R, LFE
Sampling rate : 48.0 KHz
Bit depth : 16 bits
Compression mode : Lossy
Stream size : 510 MiB (10%)
Language : Dutch
Default : No
Forced : No

Text
ID : 5
Format : UTF-8
Codec ID : S_TEXT/UTF8
Codec ID/Info : UTF-8 Plain Text
Language : English
Default : No
Forced : No

Menu
00:00:00.000 : en:00:00:00.000
00:10:01.250 : en:00:10:01.250
00:20:58.292 : en:00:20:58.292
00:30:40.667 : en:00:30:40.667
00:40:43.042 : en:00:40:43.042
00:49:43.625 : en:00:49:43.625
01:00:45.458 : en:01:00:45.458
01:11:30.292 : en:01:11:30.292
01:19:40.083 : en:01:19:40.083
01:28:30.708 : en:01:28:30.708
01:38:29.375 : en:01:38:29.375
01:47:16.333 : en:01:47:16.333

загрузка...
Правила, инструкции, FAQ!!!
Торрент  Добавлен [25 ноя 2013, 17:24] Скачать торрент
Скачать торрент
[ Размер 24.73 КБ / Просмотров 2 ]

Статус  
 
Размер  4.85 ГБ
Приватный: Нет (DHT включён)
.torrent скачан  0
Как залить торрент? | Как скачать Torrent? | Как смотреть и слушать онлайн?  


     Отправить личное сообщение
   
Страница 1 из 1
Показать сообщения за:  Поле сортировки  
Начать новую тему Ответить на тему

   Похожие торренты   Автор   Ответы   Просмотры   Последнее сообщение 
В этой теме нет новых непрочитанных сообщений. Скачать торрент Опасная иллюзия / Влюбиться до смерти / The Necessary Death of Charlie Countryman (2013) BDRip 720p | L2

в форуме 720p | 1080p, Размер: 5.1 ГБ, Здоровье: 0%

Anonymous

0
0|0

45
0

11 янв 2014, 22:16

Anonymous Перейти к последнему сообщению

В этой теме нет новых непрочитанных сообщений. Скачать торрент Проверен (Punk) Банда Четырёх (Банда Четырех) - Концерты - 1996-2009, MP3, 80kbps - 320kbps

в форуме Русский Рок, Размер: 396.15 МБ, Здоровье: 100%

Anonymous

0
2|1

3
0

22 авг 2016, 10:38

Anonymous Перейти к последнему сообщению

В этой теме нет новых непрочитанных сообщений. Скачать торрент Проверен (Punk) Банда Четырёх (Банда Четырех) - 1996 - 2005 (попытка дискографии), MP3/OGG

в форуме Русский Рок, Размер: 488.87 МБ, Здоровье: 0%

Anonymous

0
0|0

8
0

23 авг 2016, 01:15

Anonymous Перейти к последнему сообщению

В этой теме нет новых непрочитанных сообщений. Скачать торрент Проверен Банды Нью-Йорка / Gangs of New York [REMASTERED] (Мартин Скорсезе / Martin Scorsese) [2002, США, Германия, Великобритания, Нидерланды, Италия, драма, криминал, история, BDRip, 480p] Dub + Original + sub (rus, eng)

в форуме Фильмы для iPod, iPhone, iPad, Размер: 2.05 ГБ, Здоровье: 100%

Гость

0
14|5

29
0

12 май 2015, 00:13

Гость Перейти к последнему сообщению

В этой теме нет новых непрочитанных сообщений. Скачать торрент Проверен Банда Келли / Ned Kelly (2003) BDRip 1080p

в форуме 720p | 1080p, Размер: 7.99 ГБ, Здоровье: 100%

Anonymous

0
15|3

34
92

18 дек 2014, 23:34

Anonymous Перейти к последнему сообщению



Сейчас этот форум просматривают: нет зарегистрированных пользователей и гости: 1


Вы не можете начинать темы
Вы не можете отвечать на сообщения
Вы не можете редактировать свои сообщения
Вы не можете удалять свои сообщения
Вы не можете добавлять вложения

Перейти:  

!ВНИМАНИЕ!
 Ресурс не предоставляет электронные версии произведений, а занимается лишь коллекционированием и каталогизацией ссылок, присылаемых и публикуемых на форуме нашими читателями. Если вы являетесь правообладателем какого-либо представленного материала и не желаете чтобы ссылка на него находилась в нашем каталоге, свяжитесь с нами и мы незамедлительно удалим её. Файлы для обмена на трекере предоставлены пользователями сайта, и администрация не несёт ответственности за их содержание. Просьба не заливать файлы, защищенные авторскими правами, а также файлы нелегального содержания!