На всех торрентах на трекере установлена скидка на скачивание в размере 100 процентов(а).
 Возможность скачивания торрента НЕ зависит от ограничений при низком ратио, низком аплоаде, требуемом ратио или требуемом аплоаде.


Начать новую тему Ответить на тему
Статистика раздачи
Размер: 4.05 ГБ | Добавлен: 25 ноя 2013, 10:19 | Скачали: 4
Сидеров: 0  [0 байт/сек]    Личеров: 1  [0 байт/сек]
Пред. тема | След. тема 

Автор
Сообщение

СообщениеДобавлено: 25 ноя 2013, 10:19 

Название: Маньяк-полицейский 2
Оригинальное название: Maniac Cop 2
Год выпуска: 1990
Жанр: Боевик, мистика, триллер, ужасы
Режиссер: Уильям Ластиг

В ролях: Роберт Дави, Клаудиа Кристиан, Майкл Лернер, Брюс Кэмпбелл, Лаурен Лэндон, Кларенс Уильямс III

Описание: Все думают, что Мэт Корделл утонул в пучинах реки, куда он упал в полицейском грузовике, но они жестоко ошибаются. Мэтт сам назначил себя судьей, жюри присяжных и палачом. Совсем недавно он был героем, лучшим полицейским, но его приверженность к справедливости добавило ему врагов, властных и безжалостных, могущественных и непримиримых. Они отправили его в тюрьму Синг-Синг прямо в лапы злых преступников, которых он сам недавно засадил за решетку. Но теперь их обман и коррупция создали монстра, которого не может контролировать никто. Восставший из мертвых маньяк-полицейский снова на посту и единственный билет, который он выписывает-это билет в морг…



Страна: США
Студия: Medusa Pictures
Продолжительность: 01:27:22
Перевод: Любительский одноголосый


Качество: BDRip 720p
Видео: MPEG-4 AVC, 6000 Кбит/с, 1280x690, 23.976 кадр/с
Аудио #1: Русский (AC3, 2 ch, 192 Кбит/с) / Любительский одноголосый
Аудио #2: Английский (AC3, 6 ch, 448 Кбит/с)
Субтитры: Русские, английские



Общее
Уникальный идентификатор : 241864764859823531752301439893140621846 (0xB5F5759592FED4ED9BC8325AE2674A16)
Полное имя : D:Mои раздачиManiac.Cop-2.2013.BDRip.(720p)-MediaClub.mkv
Формат : Matroska
Версия формата : Version 4 / Version 2
Размер файла : 4,05 Гбайт
Продолжительность : 1 ч. 27 м.
Общий поток : 6631 Кбит/сек
Название фильма : -=MediaClub-kaspr=-
Дата кодирования : UTC 2013-11-25 06:17:35
Программа кодирования : mkvmerge v6.1.0 ('Old Devil') built on Mar 4 2013 09:10:42
Библиотека кодирования : libebml v1.3.0 + libmatroska v1.4.0

Видео
Идентификатор : 1
Формат : AVC
Формат/Информация : Advanced Video Codec
Профиль формата : High@L4.1
Параметр CABAC формата : Да
Параметр ReFrames формата : 8 кадров
Идентификатор кодека : V_MPEG4/ISO/AVC
Продолжительность : 1 ч. 27 м.
Битрейт : 6000 Кбит/сек
Ширина : 1280 пикселей
Высота : 690 пикселей
Соотношение сторон : 1,85:1
Режим частоты кадров : Постоянный
Частота кадров : 23,976 кадра/сек
Цветовое пространство : YUV
Субдискретизация насыщенности : 4:2:0
Битовая глубина : 8 бит
Тип развёртки : Прогрессивная
Бит/(Пиксели*Кадры) : 0.283
Размер потока : 3,58 Гбайт (88%)
Заголовок : -=MediaClub-kaspr=-
Библиотека кодирования : x264 core 130 r2273 b3065e6
Настройки программы : cabac=1 / ref=8 / deblock=1:-3:-3 / analyse=0x3:0x133 / me=umh / subme=11 / psy=1 / psy_rd=1.00:0.20 / mixed_ref=1 / me_range=48 / chroma_me=1 / trellis=2 / 8x8dct=1 / cqm=0 / deadzone=21,11 / fast_pskip=0 / chroma_qp_offset=-3 / threads=12 / lookahead_threads=3 / sliced_threads=0 / nr=0 / decimate=0 / interlaced=0 / bluray_compat=0 / constrained_intra=0 / bframes=10 / b_pyramid=2 / b_adapt=2 / b_bias=0 / direct=3 / weightb=1 / open_gop=0 / weightp=2 / keyint=240 / keyint_min=23 / scenecut=40 / intra_refresh=0 / rc=2pass / mbtree=0 / bitrate=6000 / ratetol=1.0 / qcomp=0.60 / qpmin=0 / qpmax=69 / qpstep=4 / cplxblur=20.0 / qblur=0.5 / ip_ratio=1.40 / pb_ratio=1.30 / aq=1:1.00
Default : Да
Forced : Нет

Аудио #1
Идентификатор : 2
Формат : AC-3
Формат/Информация : Audio Coding 3
Расширение режима : CM (complete main)
Параметр Endianness формата : Big
Идентификатор кодека : A_AC3
Продолжительность : 1 ч. 27 м.
Вид битрейта : Постоянный
Битрейт : 192 Кбит/сек
Каналы : 2 канала
Расположение каналов : Front: L R
Частота : 48,0 КГц
Битовая глубина : 16 бит
Метод сжатия : С потерями
Размер потока : 120 Мбайт (3%)
Язык : Russian
Default : Да
Forced : Нет

Аудио #2
Идентификатор : 3
Формат : AC-3
Формат/Информация : Audio Coding 3
Расширение режима : CM (complete main)
Параметр Endianness формата : Big
Идентификатор кодека : A_AC3
Продолжительность : 1 ч. 27 м.
Вид битрейта : Постоянный
Битрейт : 448 Кбит/сек
Каналы : 6 каналов
Расположение каналов : Front: L C R, Side: L R, LFE
Частота : 48,0 КГц
Битовая глубина : 16 бит
Метод сжатия : С потерями
Размер потока : 280 Мбайт (7%)
Язык : English
Default : Нет
Forced : Нет

Текст #1
Идентификатор : 4
Формат : UTF-8
Идентификатор кодека : S_TEXT/UTF8
Идентификатор кодека/Информация : UTF-8 Plain Text
Язык : Russian
Default : Нет
Forced : Нет

Текст #2
Идентификатор : 5
Формат : UTF-8
Идентификатор кодека : S_TEXT/UTF8
Идентификатор кодека/Информация : UTF-8 Plain Text
Язык : English
Default : Да
Forced : Нет

Меню
00:00:00.000 : en:Chapter 01
00:05:42.924 : en:Chapter 02
00:10:52.443 : en:Chapter 03
00:17:27.963 : en:Chapter 04
00:22:51.243 : en:Chapter 05
00:28:11.398 : en:Chapter 06
00:37:30.331 : en:Chapter 07
00:42:21.997 : en:Chapter 08
00:46:21.820 : en:Chapter 09
00:51:00.140 : en:Chapter 10
00:56:42.440 : en:Chapter 11
01:03:04.780 : en:Chapter 12
01:07:35.259 : en:Chapter 13
01:12:50.448 : en:Chapter 14
01:17:00.532 : en:Chapter 15
01:23:21.371 : en:Chapter 16

Релиз: |
загрузка...
Правила, инструкции, FAQ!!!
Торрент  Добавлен [25 ноя 2013, 10:19] Скачать торрент
Скачать торрент
[ Размер 10.69 КБ / Просмотров 4 ]

Статус  
 
Размер  4.05 ГБ
Приватный: Нет (DHT включён)
.torrent скачан  4
Как залить торрент? | Как скачать Torrent? | Как смотреть и слушать онлайн?  


     Отправить личное сообщение
   
Страница 1 из 1
Показать сообщения за:  Поле сортировки  
Начать новую тему Ответить на тему

   Похожие торренты   Автор   Ответы   Просмотры   Последнее сообщение 
В этой теме нет новых непрочитанных сообщений. Скачать торрент Проверен Маньяк-полицейский 2 / Maniac Cop 2 (1990) BDRip

в форуме Ужасы, Размер: 1.45 ГБ, Здоровье: 0%

Anonymous

0
0|0

111
0

15 ноя 2014, 15:43

Anonymous Перейти к последнему сообщению

В этой теме нет новых непрочитанных сообщений. Скачать торрент Проверен Маньяк-полицейский / Maniac Cop (1988) BDRip

в форуме Ужасы, Размер: 1.45 ГБ, Здоровье: 100%

Anonymous

0
4|4

107
31

15 ноя 2014, 15:46

Anonymous Перейти к последнему сообщению

В этой теме нет новых непрочитанных сообщений. Скачать торрент Проверен Маньяк-полицейский: Трилогия / Maniac Cop: Trilogy (1988-1993) BDRip | A

в форуме Трилогии, Размер: 4.28 ГБ, Здоровье: 100%

Гость

0
113|97

167
191

07 апр 2015, 17:25

Гость Перейти к последнему сообщению

В этой теме нет новых непрочитанных сообщений. Скачать торрент Плохой хороший полицейский / Bon Cop, Bad Cop (2006) BDRip 720p

в форуме 720p | 1080p, Размер: 6.23 ГБ, Здоровье: 0%

Anonymous

0
0|0

28
0

29 янв 2014, 07:58

Anonymous Перейти к последнему сообщению

В этой теме нет новых непрочитанных сообщений. Скачать торрент Проверен Волк-полицейский / WolfCop (2014) BDRip 720p | L1

в форуме 720p | 1080p, Размер: 3.38 ГБ, Здоровье: 100%

Anonymous

0
89|22

29
611

29 окт 2014, 00:30

Anonymous Перейти к последнему сообщению



Сейчас этот форум просматривают: нет зарегистрированных пользователей и гости: 3


Вы не можете начинать темы
Вы не можете отвечать на сообщения
Вы не можете редактировать свои сообщения
Вы не можете удалять свои сообщения
Вы не можете добавлять вложения

Перейти:  

!ВНИМАНИЕ!
 Ресурс не предоставляет электронные версии произведений, а занимается лишь коллекционированием и каталогизацией ссылок, присылаемых и публикуемых на форуме нашими читателями. Если вы являетесь правообладателем какого-либо представленного материала и не желаете чтобы ссылка на него находилась в нашем каталоге, свяжитесь с нами и мы незамедлительно удалим её. Файлы для обмена на трекере предоставлены пользователями сайта, и администрация не несёт ответственности за их содержание. Просьба не заливать файлы, защищенные авторскими правами, а также файлы нелегального содержания!