На всех торрентах на трекере установлена скидка на скачивание в размере 100 процентов(а).
 Возможность скачивания торрента НЕ зависит от ограничений при низком ратио, низком аплоаде, требуемом ратио или требуемом аплоаде.


Начать новую тему Ответить на тему
Статистика раздачи
Размер: 4.37 ГБ | Добавлен: 25 ноя 2013, 08:43 | Скачали: 0
Сидеров: 0  [0 байт/сек]    Личеров: 0  [0 байт/сек]
Пред. тема | След. тема 

Автор
Сообщение

СообщениеДобавлено: 25 ноя 2013, 08:43 

Информация о фильме
    Русское название: Влюбись в меня, если осмелишься
    Оригинальное название: Jeux denfants
    Год выхода: 2003
    Жанр: Мелодрама, комедия
    Режиссер: Янн Самюэль
    Выпущено: Франция
    Продолжительность: 01:30:19
    Перевод: Дублированный
    В ролях: Гийом Кане, Марион Котияр, Жерар Уоткинс, Летиция Венеция Тарновска, Жиль Лелуш, Элоди Наварре


Сюжет фильма
    Судьба свела их не зря: вдвоем они составили странную, но гармоничную пару. Они родились великими выдумщиками, такими, от которых стонала школа. Их проделки можно было бы осудить и окрестить их закоренелыми хулиганами, если бы эти двое не были просто маленькими детьми.
    Они придумали игру, такую, которую могли придумать только они, игру «осмелишься — не осмелишься». Они брали друг друга «на слабо». Игра росла вместе с ними, и однажды они стали взрослыми. Все изменилось, но они уже не могли отличить игру от жизни, потому что игра была их жизнью. Никто не хотел уступать. Они шутили и смеялись, они делали друг другу больно, они страдали и теряли годы…
    Они знали, что любят друг друга, они произносили эти слова, но игра возвращалась, не позволяя им стать просто мужчиной и женщиной… Однажды изменилось и это…


Файл
    Качество: BDRip 720p (исходник Blu-ray Remux)
    Видео: 1280x672, 6100 Кбит/сек, 25,000 кадр/сек, AVC, x264, High@L4.1, 1.905, 0.284 Бит/[Пиксели*Кадры], 2pass
    Аудио 1: AC-3, 448 Кбит/сек, 6 канала(ов), 48,0 КГц - Дублированный / Русский
    Аудио 2: AC-3, 384 Кбит/сек, 6 канал(ов), 48,0 КГц - Оригинал / Французский
    Субтитры: Русские | Полные, Французские | Полные
    Чаптеры: Есть



Автор Рипа: Сообщество:



Format : Matroska
Format version : Version 2
File size : 4.37 GiB
Duration : 1h 30mn
Overall bit rate : 6 930 Kbps
Movie name : Влюбись в меня, если осмелишься.(2003).BDRip.720p.[envy]
Encoded date : UTC 2013-11-25 00:35:45
Writing application : mkvmerge v5.8.0 ('No Sleep / Pillow') built on Sep 2 2012 15:37:04
Writing library : libebml v1.2.3 + libmatroska v1.3.0

Video
ID : 1
Format : AVC
Format/Info : Advanced Video Codec
Format profile : High@L4.1
Format settings, CABAC : Yes
Format settings, ReFrames : 9 frames
Codec ID : V_MPEG4/ISO/AVC
Duration : 1h 30mn
Bit rate : 6 100 Kbps
Width : 1 280 pixels
Height : 672 pixels
Display aspect ratio : 1.905
Frame rate mode : Constant
Frame rate : 25.000 fps
Color space : YUV
Chroma subsampling : 4:2:0
Bit depth : 8 bits
Scan type : Progressive
Bits/(Pixel*Frame) : 0.284
Stream size : 3.76 GiB (86%)
Title : Влюбись в меня, если осмелишься.(2003).BDRip.720p.[envy]
Writing library : x264 core 140 r2377 1ca7bb9
Encoding settings : cabac=1 / ref=9 / deblock=1:-3:-2 / analyse=0x3:0x133 / me=umh / subme=11 / psy=1 / psy_rd=1.00:0.00 / mixed_ref=1 / me_range=32 / chroma_me=1 / trellis=2 / 8x8dct=1 / cqm=0 / deadzone=21,11 / fast_pskip=0 / chroma_qp_offset=-2 / threads=12 / lookahead_threads=2 / sliced_threads=0 / nr=0 / decimate=1 / interlaced=0 / bluray_compat=0 / constrained_intra=0 / bframes=8 / b_pyramid=2 / b_adapt=2 / b_bias=0 / direct=3 / weightb=1 / open_gop=0 / weightp=2 / keyint=250 / keyint_min=25 / scenecut=40 / intra_refresh=0 / rc=2pass / mbtree=0 / bitrate=6100 / ratetol=2.0 / qcomp=0.60 / qpmin=0 / qpmax=69 / qpstep=4 / cplxblur=20.0 / qblur=0.5 / ip_ratio=1.40 / pb_ratio=1.30 / aq=1:0.60
Language : English
Default : Yes
Forced : No

Audio #1
ID : 2
Format : AC-3
Format/Info : Audio Coding 3
Mode extension : CM (complete main)
Format settings, Endianness : Big
Codec ID : A_AC3
Duration : 1h 30mn
Bit rate mode : Constant
Bit rate : 448 Kbps
Channel count : 6 channels
Channel positions : Front: L C R, Side: L R, LFE
Sampling rate : 48.0 KHz
Bit depth : 16 bits
Compression mode : Lossy
Stream size : 289 MiB (6%)
Title : rus
Language : Russian
Default : Yes
Forced : No

Audio #2
ID : 3
Format : AC-3
Format/Info : Audio Coding 3
Mode extension : CM (complete main)
Format settings, Endianness : Big
Codec ID : A_AC3
Duration : 1h 30mn
Bit rate mode : Constant
Bit rate : 384 Kbps
Channel count : 6 channels
Channel positions : Front: L C R, Side: L R, LFE
Sampling rate : 48.0 KHz
Bit depth : 16 bits
Compression mode : Lossy
Stream size : 248 MiB (6%)
Title : fre
Language : French
Default : No
Forced : No

Text #1
ID : 4
Format : UTF-8
Codec ID : S_TEXT/UTF8
Codec ID/Info : UTF-8 Plain Text
Title : rus
Language : Russian
Default : No
Forced : No

Text #2
ID : 5
Format : UTF-8
Codec ID : S_TEXT/UTF8
Codec ID/Info : UTF-8 Plain Text
Title : fre
Language : French
Default : No
Forced : No

Menu
00:00:00.000 : :Chapter 01
00:05:00.000 : :Chapter 02
00:10:00.000 : :Chapter 03
00:15:00.000 : :Chapter 04
00:20:00.000 : :Chapter 05
00:25:00.000 : :Chapter 06
00:30:00.000 : :Chapter 07
00:35:00.000 : :Chapter 08
00:40:00.000 : :Chapter 09
00:45:00.000 : :Chapter 10
00:50:00.000 : :Chapter 11
00:55:00.000 : :Chapter 12
01:00:00.000 : :Chapter 13
01:05:00.000 : :Chapter 14
01:10:00.000 : :Chapter 15
01:15:00.000 : :Chapter 16
01:20:00.000 : :Chapter 17
01:25:00.000 : :Chapter 18
01:30:00.000 : :Chapter 19
загрузка...
Правила, инструкции, FAQ!!!
Торрент  Добавлен [25 ноя 2013, 08:43] Скачать торрент
Скачать торрент
[ Размер 22.31 КБ / Просмотров 14 ]

Статус  
 
Размер  4.37 ГБ
Приватный: Нет (DHT включён)
.torrent скачан  0
Как залить торрент? | Как скачать Torrent? | Как смотреть и слушать онлайн?  


     Отправить личное сообщение
   
Страница 1 из 1
Показать сообщения за:  Поле сортировки  
Начать новую тему Ответить на тему

   Похожие торренты   Автор   Ответы   Просмотры   Последнее сообщение 
В этой теме нет новых непрочитанных сообщений. Скачать торрент Проверен [iPad] Влюбись в меня, если осмелишься / Jeux d'enfants (Янн Самюэль) [2003 г., драма, мелодрама, DVDRip]

в форуме Фильмы для iPod, iPhone, iPad, Размер: 1.62 ГБ, Здоровье: 100%

Гость

0
22|7

31
1

14 май 2015, 00:18

Гость Перейти к последнему сообщению

В этой теме нет новых непрочитанных сообщений. Скачать торрент Проверен [iPhone] Влюбись в меня, если осмелишься / Jeux d'enfants (Янн Самюэль / Yann Samuell) [2003 г., комедия, мелодрама, драма, DVDRip]

в форуме Фильмы для iPod, iPhone, iPad, Размер: 497.23 МБ, Здоровье: 100%

Гость

0
9|4

33
0

18 май 2015, 10:53

Гость Перейти к последнему сообщению

В этой теме нет новых непрочитанных сообщений. Скачать торрент Проверен Час расплаты / Paycheck (2003) BDRip 720p

в форуме 720p | 1080p, Размер: 10.36 ГБ, Здоровье: 47%

Гость

0
39|82

28
26

30 ноя 2014, 02:39

Гость Перейти к последнему сообщению

В этой теме нет новых непрочитанных сообщений. Скачать торрент Проверен Невезучие / Tais-toi! (2003) [720p] BDRip

в форуме 720p | 1080p, Размер: 4.37 ГБ, Здоровье: ???%

Гость

0
0|1

39
0

01 фев 2015, 23:32

Гость Перейти к последнему сообщению

В этой теме нет новых непрочитанных сообщений. Скачать торрент Проверен Монстр / Monster (2003) BDRip [H.264/720p]

в форуме 720p | 1080p, Размер: 6.44 ГБ, Здоровье: 100%

Гость

0
38|8

90
18

03 апр 2015, 01:23

Гость Перейти к последнему сообщению



Сейчас этот форум просматривают: нет зарегистрированных пользователей и гости: 3


Вы не можете начинать темы
Вы не можете отвечать на сообщения
Вы не можете редактировать свои сообщения
Вы не можете удалять свои сообщения
Вы не можете добавлять вложения

Перейти:  

!ВНИМАНИЕ!
 Ресурс не предоставляет электронные версии произведений, а занимается лишь коллекционированием и каталогизацией ссылок, присылаемых и публикуемых на форуме нашими читателями. Если вы являетесь правообладателем какого-либо представленного материала и не желаете чтобы ссылка на него находилась в нашем каталоге, свяжитесь с нами и мы незамедлительно удалим её. Файлы для обмена на трекере предоставлены пользователями сайта, и администрация не несёт ответственности за их содержание. Просьба не заливать файлы, защищенные авторскими правами, а также файлы нелегального содержания!