На всех торрентах на трекере установлена скидка на скачивание в размере 100 процентов(а).
 Возможность скачивания торрента НЕ зависит от ограничений при низком ратио, низком аплоаде, требуемом ратио или требуемом аплоаде.


Начать новую тему Ответить на тему
Статистика раздачи
Размер: 4.53 ГБ | Добавлен: 24 ноя 2013, 00:39 | Скачали: 0
Сидеров: 0  [0 байт/сек]    Личеров: 0  [0 байт/сек]
Пред. тема | След. тема 

Автор
Сообщение

СообщениеДобавлено: 24 ноя 2013, 00:39 

Название: Холодные глаза / Слежка
Оригинальное название: Cold Eyes
Год выхода: 2013
Жанр: триллер
Режиссер: Джо Уи Сок, Бён-со Ким

В ролях: Хан Хен Чжу, Соль Гён Гу, Чон У Сон, Ли Чун Хо

О фильме:
Команда специалистов по наблюдению, входящая в состав специального подразделения полиции, получает задание, с которым никто кроме них не может справиться. Им предстоит выследить виновных в совершении ряда дерзких банковских ограблений. Используя самую современную технику и незаурядные аналитические данные, группа выходит на след преступников. Но оказывается, что здесь замешана влиятельная организация, и обезвредить её будет совсем не просто...



Выпущено: Корея Южная
Продолжительность: 01:59:01
Озвучивание: Любительское (двухголосое) [DeadSno & den904]


Формат: MKV
Качество: BDRip 720p [WiKi]
Видео: 4614 kb/s, 1280х536
Аудио: Russian: AC3, 192 kb/s (2 ch) / Korean: AC3, 640 kb/s (6 ch)
Субтитры: Russian [indiotka], English
Дополнительно: Сохранены оригинальные чаптеры как на Blu-Ray

Скачать: Сэмпл

Релиз группы:



General
Cold.Eyes.2013.BDRip.720p.CINEMANIA.mkv
Format : Matroska
Format version : Version 4 / Version 2
File size : 4.53 GiB
Duration : 1h 59mn
Overall bit rate : 5 447 Kbps
Movie name : Release Group CINEMANIA
Encoded date : UTC 2013-11-21 15:30:07
Writing application : mkvmerge v6.5.0 ('Isn't she lovely') built on Oct 20 2013 12:50:05
Writing library : libebml v1.3.0 + libmatroska v1.4.1

Video
ID : 1
Format : AVC
Format/Info : Advanced Video Codec
Format profile : High@L4.1
Format settings, CABAC : Yes
Format settings, ReFrames : 12 frames
Codec ID : V_MPEG4/ISO/AVC
Duration : 1h 59mn
Bit rate : 4 614 Kbps
Width : 1 280 pixels
Height : 536 pixels
Display aspect ratio : 2.40:1
Frame rate mode : Constant
Frame rate : 24.000 fps
Color space : YUV
Chroma subsampling : 4:2:0
Bit depth : 8 bits
Scan type : Progressive
Bits/(Pixel*Frame) : 0.280
Stream size : 3.75 GiB (83%)
Title : Release Group CINEMANIA
Writing library : x264 core 129 r2245+704+36 8e61944 tMod+MixAQ [8-bit@4:2:0 X86_64]
Encoding settings : cabac=1 / ref=12 / deblock=1:-3:-3 / analyse=0x3:0x133 / me=umh / subme=11 / psy=1 / fade_compensate=0.00 / psy_rd=1.05:0.10 / mixed_ref=1 / me_range=32 / chroma_me=1 / trellis=2 / 8x8dct=1 / cqm=0 / deadzone=21,11 / fast_pskip=0 / chroma_qp_offset=-3 / threads=18 / lookahead_threads=3 / sliced_threads=0 / nr=0 / decimate=0 / interlaced=0 / bluray_compat=0 / constrained_intra=0 / fgo=0 / bframes=8 / b_pyramid=2 / b_adapt=2 / b_bias=0 / direct=3 / weightb=1 / open_gop=0 / weightp=2 / keyint=250 / keyint_min=24 / scenecut=40 / intra_refresh=0 / rc_lookahead=80 / rc=2pass / mbtree=1 / bitrate=4614 / ratetol=1.0 / qcomp=0.70 / qpmin=0 / qpmax=69 / qpstep=4 / cplxblur=20.0 / qblur=0.5 / ip_ratio=1.40 / aq=3 / aq-strength=0.80 / aq-sensitivity=10.00 / aq-ifactor=1.00 / aq-pfactor=1.00 / aq-bfactor=1.00 / aq2=0
Language : Korean
Default : Yes
Forced : No
Matrix coefficients : BT.709

Audio #1
ID : 2
Format : AC-3
Format/Info : Audio Coding 3
Mode extension : CM (complete main)
Format settings, Endianness : Big
Codec ID : A_AC3
Duration : 1h 59mn
Bit rate mode : Constant
Bit rate : 192 Kbps
Channel(s) : 2 channels
Channel positions : Front: L R
Sampling rate : 48.0 KHz
Bit depth : 16 bits
Compression mode : Lossy
Stream size : 163 MiB (4%)
Title : DeadSno & den904
Language : Russian
Default : Yes
Forced : Yes

Audio #2
ID : 3
Format : AC-3
Format/Info : Audio Coding 3
Mode extension : CM (complete main)
Format settings, Endianness : Big
Codec ID : A_AC3
Duration : 1h 59mn
Bit rate mode : Constant
Bit rate : 640 Kbps
Channel(s) : 6 channels
Channel positions : Front: L C R, Side: L R, LFE
Sampling rate : 48.0 KHz
Bit depth : 16 bits
Compression mode : Lossy
Stream size : 545 MiB (12%)
Language : Korean
Default : No
Forced : No

Text #1
ID : 4
Format : UTF-8
Codec ID : S_TEXT/UTF8
Codec ID/Info : UTF-8 Plain Text
Title : indiotka
Language : Russian
Default : No
Forced : No

Text #2
ID : 5
Format : UTF-8
Codec ID : S_TEXT/UTF8
Codec ID/Info : UTF-8 Plain Text
Language : English
Default : No
Forced : No

Menu
00:00:00.000 : en:00:00:00.000
00:07:39.250 : en:00:07:39.250
00:14:44.208 : en:00:14:44.208
00:21:20.750 : en:00:21:20.750
00:28:53.208 : en:00:28:53.208
00:35:56.625 : en:00:35:56.625
00:42:41.541 : en:00:42:41.541
00:49:04.375 : en:00:49:04.375
00:56:07.333 : en:00:56:07.333
01:02:41.750 : en:01:02:41.750
01:09:08.125 : en:01:09:08.125
01:17:07.708 : en:01:17:07.708
01:24:44.291 : en:01:24:44.291
01:31:35.625 : en:01:31:35.625
01:36:33.000 : en:01:36:33.000
01:41:28.666 : en:01:41:28.666
01:48:24.375 : en:01:48:24.375
01:55:01.333 : en:01:55:01.333

загрузка...
Правила, инструкции, FAQ!!!
Торрент  Добавлен [24 ноя 2013, 00:39] Скачать торрент
Скачать торрент
[ Размер 23.12 КБ / Просмотров 7 ]

Статус  
 
Размер  4.53 ГБ
Приватный: Нет (DHT включён)
.torrent скачан  0
Как залить торрент? | Как скачать Torrent? | Как смотреть и слушать онлайн?  


     Отправить личное сообщение
   
Страница 1 из 1
Показать сообщения за:  Поле сортировки  
Начать новую тему Ответить на тему

   Похожие торренты   Автор   Ответы   Просмотры   Последнее сообщение 
В этой теме нет новых непрочитанных сообщений. Скачать торрент Проверен Большие глаза / Big Eyes (2014) BDRip 1080p | iTunes

в форуме 720p | 1080p, Размер: 8.78 ГБ, Здоровье: 100%

Гость

0
106|54

83
74

08 апр 2015, 23:01

Гость Перейти к последнему сообщению

В этой теме нет новых непрочитанных сообщений. Скачать торрент Проверен Большие глаза / Big Eyes (2014) BDRip [576p] iPad

в форуме Фильмы для iPod, iPhone, iPad, Размер: 2.04 ГБ, Здоровье: 100%

Anonymous

0
2|1

89
0

13 сен 2015, 00:42

Anonymous Перейти к последнему сообщению

В этой теме нет новых непрочитанных сообщений. Скачать торрент Проверен Глаза звезды / Starry Eyes (2014) BDRip [576p] iPad

в форуме Фильмы для iPod, iPhone, iPad, Размер: 1.99 ГБ, Здоровье: 100%

Anonymous

0
3|1

17
0

13 сен 2015, 00:56

Anonymous Перейти к последнему сообщению

В этой теме нет новых непрочитанных сообщений. Скачать торрент Взгляд зимы / Cold Comes the Night (2013) BDRip 720p | L1

в форуме 720p | 1080p, Размер: 4.6 ГБ, Здоровье: 0%

Anonymous

0
0|0

23
0

22 фев 2014, 13:46

Anonymous Перейти к последнему сообщению

В этой теме нет новых непрочитанных сообщений. Скачать торрент Проверен Открой глаза / Abre los ojos (1997) BDRip 720p | P, A

в форуме 720p | 1080p, Размер: 7.49 ГБ, Здоровье: 100%

Гость

0
34|10

103
121

21 июл 2015, 23:15

Гость Перейти к последнему сообщению



Сейчас этот форум просматривают: нет зарегистрированных пользователей и гости: 1


Вы не можете начинать темы
Вы не можете отвечать на сообщения
Вы не можете редактировать свои сообщения
Вы не можете удалять свои сообщения
Вы не можете добавлять вложения

Перейти:  

!ВНИМАНИЕ!
 Ресурс не предоставляет электронные версии произведений, а занимается лишь коллекционированием и каталогизацией ссылок, присылаемых и публикуемых на форуме нашими читателями. Если вы являетесь правообладателем какого-либо представленного материала и не желаете чтобы ссылка на него находилась в нашем каталоге, свяжитесь с нами и мы незамедлительно удалим её. Файлы для обмена на трекере предоставлены пользователями сайта, и администрация не несёт ответственности за их содержание. Просьба не заливать файлы, защищенные авторскими правами, а также файлы нелегального содержания!