На всех торрентах на трекере установлена скидка на скачивание в размере 100 процентов(а).
 Возможность скачивания торрента НЕ зависит от ограничений при низком ратио, низком аплоаде, требуемом ратио или требуемом аплоаде.


Начать новую тему Ответить на тему
Статистика раздачи
Размер: 2.7 ГБ | Добавлен: 20 ноя 2013, 08:35 | Скачали: 131
Сидеров: 101  [0 байт/сек]    Личеров: 15  [0 байт/сек]
Пред. тема | След. тема 

Автор
Сообщение

СообщениеДобавлено: 20 ноя 2013, 08:35 

Название: Центурион
Оригинальное название: Centurion
Год выхода: 2010
Жанр: Боевик, приключения, военный
Режиссер: Нил Маршалл

В ролях: Майкл Фассбендер, Ольга Куриленко, Доминик Уэст, Джей Джей Филд, Андреас Висневски, Дэйв Леджено, Аксель Кэролин, Даффер Лабидин, Ли Росс, Дэвид Моррисси, Саймон Чадвик, Ульрих Томсен, Райан Эткинсон, Пол Фримен, Оуэн Мэкен, Дермот Кини, Лиам Каннингэм, Ноэль Кларк, Шэйн Леонидас, Риз Ахмед, Имоджен Путс, Дилан Браун, Рэйчел Стирлинг, Майкл Картер, Том Мэннион, Питер Гиннесс, Коннор Бирн, Джеймс Карри, Дэниэл Мессье, Хамиш Мойр, Роберт Роман Ратайчак, Чен Цоу

О фильме:
Действие разворачивается в 117 году нашей эры. Главный герой — Квинтус Диас — единственный человек, уцелевший после налёта пиктов на пограничную римскую крепость. Вместе с легендарным Девятым легионом он отправляется на север, чтобы стереть с лица земли пиктов и уничтожить их предводителя, Горлакона.



Страна: Франция, Великобритания, Celador Films, Filmgate, Rushes Post Production Ltd.
Продолжительность: 01:37:29
Перевод: Дублированный, авторский одноголосый (Ю.Немахов)
Дата релиза: 22.01.2013


Кодек: H.264
Качество: BDRip-AVC
Видео: MPEG-4 AVC, 2619 Кбит/с, 1024x436
Звук: Русский (AC3, 6 ch, 448 Кбит/с), русский (AC3, 6 ch, 448 Кбит/с), английский (AC3, 6 ch, 448 Кбит/с)

Общее
Уникальный идентификатор : 215930187939904662184142051526313576702 (0xA272A4385D74BA3AB1667B528F5908FE)
Полное имя : D:1Centurion.2010.x264.BDRip.(AVC).ExKinoRay.mkv
Формат : Matroska
Версия формата : Version 2
Размер файла : 2,70 Гбайт
Продолжительность : 1 ч. 37 м.
Общий поток : 3965 Кбит/сек
Название фильма : Centurion.2010.x264.BDRip.(AVC).ExKinoRay
Дата кодирования : UTC 2013-01-22 05:45:04
Программа кодирования : mkvmerge v4.0.0 ('The Stars were mine') сборка от Jun 6 2010 16:18:42
Библиотека кодирования : libebml v1.0.0 + libmatroska v1.0.0

Видео
Идентификатор : 1
Формат : AVC
Формат/Информация : Advanced Video Codec
Профиль формата : High@L4.1
Параметр CABAC формата : Да
Параметр ReFrames формата : 8 кадров
Идентификатор кодека : V_MPEG4/ISO/AVC
Продолжительность : 1 ч. 37 м.
Битрейт : 2619 Кбит/сек
Ширина : 1024 пикселя
Высота : 436 пикселей
Соотношение сторон : 2,35:1
Частота кадров : 23,976 кадра/сек
Цветовое пространство : YUV
Субдискретизация насыщенности : 4:2:0
Битовая глубина : 8 бит
Тип развёртки : Прогрессивная
Бит/(Пиксели*Кадры) : 0.245
Размер потока : 1,73 Гбайт (64%)
Заголовок : ExKinoRay
Библиотека кодирования : x264 core 129 r2230 1cffe9f
Настройки программы : cabac=1 / ref=8 / deblock=1:-2:-2 / analyse=0x3:0x133 / me=umh / subme=11 / psy=1 / psy_rd=1.00:0.00 / mixed_ref=1 / me_range=48 / chroma_me=1 / trellis=2 / 8x8dct=1 / cqm=0 / deadzone=21,11 / fast_pskip=0 / chroma_qp_offset=-2 / threads=3 / lookahead_threads=1 / sliced_threads=0 / nr=0 / decimate=0 / interlaced=0 / bluray_compat=0 / constrained_intra=0 / bframes=8 / b_pyramid=2 / b_adapt=2 / b_bias=0 / direct=3 / weightb=1 / open_gop=0 / weightp=2 / keyint=240 / keyint_min=23 / scenecut=40 / intra_refresh=0 / rc_lookahead=40 / rc=2pass / mbtree=1 / bitrate=2619 / ratetol=1.0 / qcomp=0.60 / qpmin=10 / qpmax=51 / qpstep=4 / cplxblur=20.0 / qblur=0.5 / ip_ratio=1.40 / aq=2:1.00
Язык : English

Аудио #1
Идентификатор : 2
Формат : AC-3
Формат/Информация : Audio Coding 3
Расширение режима : CM (complete main)
Идентификатор кодека : A_AC3
Продолжительность : 1 ч. 37 м.
Вид битрейта : Постоянный
Битрейт : 448 Кбит/сек
Каналы : 6 каналов
Расположение каналов : Front: L C R, Side: L R, LFE
Частота : 48,0 КГц
Битовая глубина : 16 бит
Метод сжатия : С потерями
Размер потока : 312 Мбайт (11%)
Заголовок : Дублированный
Язык : Russian

Аудио #2
Идентификатор : 3
Формат : AC-3
Формат/Информация : Audio Coding 3
Расширение режима : CM (complete main)
Идентификатор кодека : A_AC3
Продолжительность : 1 ч. 37 м.
Вид битрейта : Постоянный
Битрейт : 448 Кбит/сек
Каналы : 6 каналов
Расположение каналов : Front: L C R, Side: L R, LFE
Частота : 48,0 КГц
Битовая глубина : 16 бит
Метод сжатия : С потерями
Размер потока : 312 Мбайт (11%)
Заголовок : Ю.Немахов
Язык : Russian

Аудио #3
Идентификатор : 4
Формат : AC-3
Формат/Информация : Audio Coding 3
Расширение режима : CM (complete main)
Идентификатор кодека : A_AC3
Продолжительность : 1 ч. 37 м.
Вид битрейта : Постоянный
Битрейт : 448 Кбит/сек
Каналы : 6 каналов
Расположение каналов : Front: L C R, Side: L R, LFE
Частота : 48,0 КГц
Битовая глубина : 16 бит
Метод сжатия : С потерями
Размер потока : 312 Мбайт (11%)
Заголовок : английский
Язык : English

Меню
00:00:00.000 : en:Chapter 01
00:03:18.072 : en:Chapter 02
00:06:43.152 : en:Chapter 03
00:11:41.033 : en:Chapter 04
00:18:57.427 : en:Chapter 05
00:22:19.212 : en:Chapter 06
00:26:24.332 : en:Chapter 07
00:36:13.171 : en:Chapter 08
00:44:21.200 : en:Chapter 09
00:52:01.201 : en:Chapter 10
00:58:21.915 : en:Chapter 11
01:01:55.545 : en:Chapter 12
01:10:11.832 : en:Chapter 13
01:17:30.062 : en:Chapter 14
01:24:41.076 : en:Chapter 15
01:33:17.842 : en:Chapter 16

Семпл

загрузка...
Правила, инструкции, FAQ!!!
Торрент  Добавлен [20 ноя 2013, 08:35] Скачать торрент
Скачать торрент
[ Размер 14.07 КБ / Просмотров 4 ]

Статус  
 
Размер  2.7 ГБ
Приватный: Нет (DHT включён)
.torrent скачан  131
Как залить торрент? | Как скачать Torrent? | Как смотреть и слушать онлайн?  


     Отправить личное сообщение
   
Страница 1 из 1
Показать сообщения за:  Поле сортировки  
Начать новую тему Ответить на тему

   Похожие торренты   Автор   Ответы   Просмотры   Последнее сообщение 
В этой теме нет новых непрочитанных сообщений. Скачать торрент Центурион / Centurion (2010) BDRip

в форуме Боевики, Размер: 1.46 ГБ, Здоровье: 100%

Anonymous

0
72|1

33
1107

25 апр 2014, 23:15

Anonymous Перейти к последнему сообщению

В этой теме нет новых непрочитанных сообщений. Скачать торрент Проверен Центурион / Centurion (2010) BDRip 1080p | D, P, A

в форуме 720p | 1080p, Размер: 15.73 ГБ, Здоровье: 100%

Anonymous

0
22|18

46
74

04 май 2015, 20:17

Anonymous Перейти к последнему сообщению

В этой теме нет новых непрочитанных сообщений. Скачать торрент Центурион / Centurion (2010) BDRip 720p | D

в форуме 720p | 1080p, Размер: 4.53 ГБ, Здоровье: 100%

Anonymous

0
37|1

35
533

25 апр 2014, 23:10

Anonymous Перейти к последнему сообщению

В этой теме нет новых непрочитанных сообщений. Скачать торрент Юрий Корчевский | Центурион (2013) [FB2]

в форуме Фантастика, фэнтези, Размер: 1.15 МБ, Здоровье: 0%

Anonymous

0
0|0

24
0

11 апр 2014, 23:33

Anonymous Перейти к последнему сообщению

В этой теме нет новых непрочитанных сообщений. Скачать торрент Проверен (Heavy Metal) Centurion - Cross and Black - 1987, MP3, 192 kbps

в форуме Heavy, Power, Progressive (Metal), Размер: 56.52 МБ, Здоровье: 0%

Anonymous

0
0|0

1
1

09 окт 2016, 12:22

Anonymous Перейти к последнему сообщению



Сейчас этот форум просматривают: нет зарегистрированных пользователей и гости: 2


Вы не можете начинать темы
Вы не можете отвечать на сообщения
Вы не можете редактировать свои сообщения
Вы не можете удалять свои сообщения
Вы не можете добавлять вложения

Перейти:  

!ВНИМАНИЕ!
 Ресурс не предоставляет электронные версии произведений, а занимается лишь коллекционированием и каталогизацией ссылок, присылаемых и публикуемых на форуме нашими читателями. Если вы являетесь правообладателем какого-либо представленного материала и не желаете чтобы ссылка на него находилась в нашем каталоге, свяжитесь с нами и мы незамедлительно удалим её. Файлы для обмена на трекере предоставлены пользователями сайта, и администрация не несёт ответственности за их содержание. Просьба не заливать файлы, защищенные авторскими правами, а также файлы нелегального содержания!