На всех торрентах на трекере установлена скидка на скачивание в размере 100 процентов(а).
 Возможность скачивания торрента НЕ зависит от ограничений при низком ратио, низком аплоаде, требуемом ратио или требуемом аплоаде.


Начать новую тему Ответить на тему
Статистика раздачи
Размер: 4.37 ГБ | Добавлен: 05 дек 2012, 11:37 | Скачали: 0
Сидеров: 0  [0 байт/сек]    Личеров: 0  [0 байт/сек]
Пред. тема | След. тема 

Автор
Сообщение

СообщениеДобавлено: 05 дек 2012, 11:37 

Информация о фильме
Название: Проклятие
Оригинальное название: The Grudge
Год выхода: 2004
Жанр: Ужасы, Мистика, Триллер
Режиссер: Такаши Шимицу /Takashi Shimizu/
В ролях: Сара Мишель Геллар /Sarah Michelle Gellar/, Джейсон Бер /Jason Behr/, Клеа Дювалл /Clea DuVall/, Уильям Мэовер /William Mapother/, Билл Пуллман /Bill Pullman/, Йоко Маки /Yoko Maki/

О фильме:
Проклятие умерших обитает в местах, где они жили, поджидая новую жертву. Когда проклятие находит новую жертву – она умирает. А проклятие становится только сильнее. И так, убивая жертву за жертвой, однажды брошенное проклятие как вирус распространяется и плетет сеть ужаса…


Страна: США, Япония
Продолжительность: 01:31:22
Перевод: Дублированный



Файл
Формат: mkv
Кодек: h.264
Качество: BDRip 1080p
Видео: 1920x1080, 6396 Kbps, 23.976 fps, 0.129 Bits/(Pixel*Frame)
Звук: AC3, 448 Kbps, 6 channels

Format : Matroska
Format version : Version 2
File size : 4.37 GiB
Duration : 1h 31mn
Overall bit rate : 6 839 Kbps
Encoded date : UTC 2012-12-05 06:26:50
Writing application : mkvmerge v5.0.1 ('Es ist Sommer') built on Oct 24 2011 19:45:06
Writing library : libebml v1.2.2 + libmatroska v1.3.0

Video
ID : 1
Format : AVC
Format/Info : Advanced Video Codec
Format profile : High@L4.1
Format settings, CABAC : Yes
Format settings, ReFrames : 4 frames
Codec ID : V_MPEG4/ISO/AVC
Duration : 1h 31mn
Bit rate : 6 396 Kbps
Width : 1 920 pixels
Height : 1 080 pixels
Display aspect ratio : 16:9
Frame rate : 23.976 fps
Color space : YUV
Chroma subsampling : 4:2:0
Bit depth : 8 bits
Scan type : Progressive
Bits/(Pixel*Frame) : 0.129
Stream size : 3.99 GiB (91%)
Writing library : x264 core 129 r2230 1cffe9f
Encoding settings : cabac=1 / ref=4 / deblock=1:0:0 / analyse=0x3:0x133 / me=umh / subme=10 / psy=1 / psy_rd=1.00:0.00 / mixed_ref=1 / me_range=32 / chroma_me=1 / trellis=2 / 8x8dct=1 / cqm=0 / deadzone=21,11 / fast_pskip=0 / chroma_qp_offset=-2 / threads=9 / lookahead_threads=1 / sliced_threads=0 / nr=0 / decimate=1 / interlaced=0 / bluray_compat=0 / constrained_intra=0 / bframes=8 / b_pyramid=2 / b_adapt=2 / b_bias=0 / direct=3 / weightb=1 / open_gop=0 / weightp=2 / keyint=250 / keyint_min=23 / scenecut=40 / intra_refresh=0 / rc_lookahead=60 / rc=2pass / mbtree=1 / bitrate=6396 / ratetol=1.0 / qcomp=0.60 / qpmin=0 / qpmax=69 / qpstep=4 / cplxblur=20.0 / qblur=0.5 / ip_ratio=1.40 / aq=1:1.00
Language : English
Default : Yes
Forced : No

Audio
ID : 2
Format : AC-3
Format/Info : Audio Coding 3
Mode extension : CM (complete main)
Format settings, Endianness : Big
Codec ID : A_AC3
Duration : 1h 31mn
Bit rate mode : Constant
Bit rate : 448 Kbps
Channel(s) : 6 channels
Channel positions : Front: L C R, Side: L R, LFE
Sampling rate : 48.0 KHz
Bit depth : 16 bits
Compression mode : Lossy
Stream size : 293 MiB (7%)
Title : дубляж
Language : Russian
Default : Yes
Forced : No

x264 [info]: frame I:725 Avg QP:20.67 size:117113
x264 [info]: frame P:23568 Avg QP:22.91 size: 52755
x264 [info]: frame B:107156 Avg QP:24.42 size: 28471

загрузка...
Правила, инструкции, FAQ!!!
Торрент  Добавлен [05 дек 2012, 11:37] Скачать торрент
Скачать торрент
[ Размер 22.24 КБ / Просмотров 21 ]

Статус
Проверен 
 
Размер  4.37 ГБ
Приватный: Нет (DHT включён)
.torrent скачан  0
Как залить торрент? | Как скачать Torrent? | Как смотреть и слушать онлайн?  


     Отправить личное сообщение
   
Страница 1 из 1
Показать сообщения за:  Поле сортировки  
Начать новую тему Ответить на тему

   Похожие торренты   Автор   Ответы   Просмотры   Последнее сообщение 
В этой теме нет новых непрочитанных сообщений. Скачать торрент Забойный реванш / Grudge Match (2013) BDRip 1080p | Чистый звук

в форуме 720p | 1080p, Размер: 7.95 ГБ, Здоровье: 0%

Anonymous

0
0|0

25
0

23 мар 2014, 13:45

Anonymous Перейти к последнему сообщению

В этой теме нет новых непрочитанных сообщений. Скачать торрент Проверен Обитель зла. Проклятие в 3Д / Biohazard. Damnation 3D (Макото Камия / Makoto Kamiya) [2012, мультфильм, ужасы, фантастика, BDrip, 1080p] OverUnder / Вертикальная стереопара

в форуме 3D Мультфильмы, Размер: 16.51 ГБ, Здоровье: 100%

Anonymous

0
1|0

11
0

07 сен 2016, 18:23

Anonymous Перейти к последнему сообщению

В этой теме нет новых непрочитанных сообщений. Скачать торрент Проверен (Industrial) [LP] [24\96] Mortiis - The Grudge - 2004, FLAC (image+.cue)

в форуме Зарубежный рок (оцифровки), Размер: 982.64 МБ, Здоровье: 0%

Anonymous

0
0|0

0
0

25 авг 2016, 09:51

Anonymous Перейти к последнему сообщению

В этой теме нет новых непрочитанных сообщений. Скачать торрент Забойный реванш / Grudge Match (2013) BDRip 720p | D | Чистый звук

в форуме 720p | 1080p, Размер: 5.76 ГБ, Здоровье: 0%

Anonymous

0
0|0

25
1

23 мар 2014, 13:49

Anonymous Перейти к последнему сообщению

В этой теме нет новых непрочитанных сообщений. Скачать торрент Проверен Жильцова Наталья - Проклятие некроманта 01, Проклятие некроманта [Ведьма, (ЛИ), 2015 г., 128 kbps, MP3]

в форуме Российская фантастика, фэнтези, мистика, ужасы, фанфики, Размер: 693.57 МБ, Здоровье: 0%

Anonymous

0
0|0

11
0

10 сен 2016, 20:53

Anonymous Перейти к последнему сообщению



Сейчас этот форум просматривают: нет зарегистрированных пользователей и гости: 1


Вы не можете начинать темы
Вы не можете отвечать на сообщения
Вы не можете редактировать свои сообщения
Вы не можете удалять свои сообщения
Вы не можете добавлять вложения

Перейти:  

!ВНИМАНИЕ!
 Ресурс не предоставляет электронные версии произведений, а занимается лишь коллекционированием и каталогизацией ссылок, присылаемых и публикуемых на форуме нашими читателями. Если вы являетесь правообладателем какого-либо представленного материала и не желаете чтобы ссылка на него находилась в нашем каталоге, свяжитесь с нами и мы незамедлительно удалим её. Файлы для обмена на трекере предоставлены пользователями сайта, и администрация не несёт ответственности за их содержание. Просьба не заливать файлы, защищенные авторскими правами, а также файлы нелегального содержания!