На всех торрентах на трекере установлена скидка на скачивание в размере 100 процентов(а).
 Возможность скачивания торрента НЕ зависит от ограничений при низком ратио, низком аплоаде, требуемом ратио или требуемом аплоаде.


Начать новую тему Ответить на тему
Статистика раздачи
Размер: 1.72 ГБ | Добавлен: 18 ноя 2013, 14:42 | Скачали: 0
Сидеров: 0  [0 байт/сек]    Личеров: 0  [0 байт/сек]
Пред. тема | След. тема 

Автор
Сообщение

СообщениеДобавлено: 18 ноя 2013, 14:42 

Название: Пропавший медальон
Оригинальное название: The Lost Medallion: The Adventures of Billy Stone
Год выхода: 2013
Жанр: Приключения
Режиссер: Билл Мьюир

В ролях: Билли Ангер, Сэмми Ханратти, Джеймс Хонг, Джэнсен Панеттьер, Уильям Коркери, Алекс Кендрик, Марк Дакаскос, Лиза ЛоЦицеро, Хэл Рубник, Сидни С. Лиуфа

О фильме:
Археолог Майкл Стоун искал утерянный медальон всю свою жизнь. Теперь уже его сын Билли продолжает эти поиски. Однажды Билли улыбнулась удача, и заветный медальон оказывается у него в руках. Вместе со своим лучшим другом Олли, поддавшись спонтанному желанию, они неожиданно попадают назад на 200 лет…



Страна: США, Downes Brothers Entertainment, Kaos Entertainment Inc., MeThinx Entertainment
Продолжительность: 01:38:10
Перевод: Любительский одноголосый
Субтитры: Русские, английские
Дата релиза: 18.04.2013


Кодек: H.264
Качество: BDRip (AVC)
Видео: MPEG-4 AVC, 1927 Кбит/с, 1024x428
Звук: (AC3, 2 ch, 192 Кбит/с), английский (AC3, 5 ch, 384 Кбит/с)

Общее
Уникальный идентификатор : 182919528693317881332763854948756629763 (0x899D050FCD41CE99BAA03981FFE02903)
Полное имя : E:3Propavshij.medalon.2013.x264.BDRip.(AVC).ExKinoRay.mkv
Формат : Matroska
Размер файла : 1,72 Гбайт
Продолжительность : 1 ч. 38 м.
Общий поток : 2505 Кбит/сек
Название фильма : Propavshij.medalon.2013.BDRip.(AVC).ExKinoRay
Дата кодирования : UTC 2013-11-18 04:18:16
Программа кодирования : mkvmerge v4.0.0 ('The Stars were mine') сборка от Jun 6 2010 16:18:42
Библиотека кодирования : libebml v1.0.0 + libmatroska v1.0.0

Видео
Идентификатор : 1
Формат : AVC
Формат/Информация : Advanced Video Codec
Профиль формата : High@L4.1
Параметр CABAC формата : Да
Параметр ReFrames формата : 8 кадров
Идентификатор кодека : V_MPEG4/ISO/AVC
Продолжительность : 1 ч. 38 м.
Битрейт : 1927 Кбит/сек
Ширина : 1024 пикс.
Высота : 428 пикс.
Соотношение сторон : 2,35:1
Частота кадров : 23,976 кадр/сек
Цветовое пространство : YUV
Подвыборка цветности : 4:2:0
Битовая глубина : 8 бит
Тип развёртки : Прогрессивная
Бит/(Пиксели*Кадры) : 0.183
Размер потока : 1,29 Гбайт (75%)
Заголовок : Rip by Enigma-Vladislav71
Библиотека кодирования : x264 core 125 r2208 d9d2288
Настройки программы : cabac=1 / ref=8 / deblock=1:-2:-2 / analyse=0x3:0x133 / me=umh / subme=11 / psy=1 / psy_rd=1.00:0.00 / mixed_ref=1 / me_range=48 / chroma_me=1 / trellis=2 / 8x8dct=1 / cqm=0 / deadzone=21,11 / fast_pskip=0 / chroma_qp_offset=-2 / threads=3 / lookahead_threads=1 / sliced_threads=0 / nr=0 / decimate=0 / interlaced=0 / bluray_compat=0 / constrained_intra=0 / bframes=8 / b_pyramid=2 / b_adapt=2 / b_bias=0 / direct=3 / weightb=1 / open_gop=0 / weightp=2 / keyint=240 / keyint_min=23 / scenecut=40 / intra_refresh=0 / rc=2pass / mbtree=0 / bitrate=1927 / ratetol=1.0 / qcomp=0.60 / qpmin=10 / qpmax=51 / qpstep=4 / cplxblur=20.0 / qblur=0.5 / ip_ratio=1.40 / pb_ratio=1.30 / aq=1:1.00

Аудио #1
Идентификатор : 2
Формат : AC-3
Формат/Информация : Audio Coding 3
Расширение режима : CM (complete main)
Идентификатор кодека : A_AC3
Продолжительность : 1 ч. 38 м.
Вид битрейта : Постоянный
Битрейт : 192 Кбит/сек
Каналы : 2 канала
Расположение каналов : Front: L R
Частота : 48,0 КГц
Битовая глубина : 16 бит
Метод сжатия : С потерями
Размер потока : 135 Мбайт (8%)
Язык : Russian

Аудио #2
Идентификатор : 3
Формат : AC-3
Формат/Информация : Audio Coding 3
Расширение режима : CM (complete main)
Идентификатор кодека : A_AC3
Продолжительность : 1 ч. 38 м.
Вид битрейта : Постоянный
Битрейт : 384 Кбит/сек
Каналы : 5 каналов
Расположение каналов : Front: L C R, Side: L R
Частота : 48,0 КГц
Битовая глубина : 16 бит
Метод сжатия : С потерями
Размер потока : 270 Мбайт (15%)
Язык : English

Текст #1
Идентификатор : 4
Формат : UTF-8
Идентификатор кодека : S_TEXT/UTF8
Идентификатор кодека/Информация : UTF-8 Plain Text
Язык : Russian

Текст #2
Идентификатор : 5
Формат : UTF-8
Идентификатор кодека : S_TEXT/UTF8
Идентификатор кодека/Информация : UTF-8 Plain Text
Язык : English

загрузка...
Правила, инструкции, FAQ!!!
Торрент  Добавлен [18 ноя 2013, 14:42] Скачать торрент
Скачать торрент
[ Размер 17.75 КБ / Просмотров 5 ]

Статус  
 
Размер  1.72 ГБ
Приватный: Нет (DHT включён)
.torrent скачан  0
Как залить торрент? | Как скачать Torrent? | Как смотреть и слушать онлайн?  


     Отправить личное сообщение
   
Страница 1 из 1
Показать сообщения за:  Поле сортировки  
Начать новую тему Ответить на тему

   Похожие торренты   Автор   Ответы   Просмотры   Последнее сообщение 
В этой теме нет новых непрочитанных сообщений. Скачать торрент Проверен Нэнси Дрю: Расколотый медальон / Nancy Drew: The Shattered Medallion (2014) PC

в форуме Приключения и квесты|я ищу, Размер: 1.54 ГБ, Здоровье: 100%

Anonymous

0
141|4

80
306

25 окт 2014, 11:01

Anonymous Перейти к последнему сообщению

В этой теме нет новых непрочитанных сообщений. Скачать торрент Пропавший отряд / Lost Command (1966) DVDRip-AVC | P

в форуме Военные, Размер: 2.07 ГБ, Здоровье: 100%

Anonymous

0
4|0

188
1

16 мар 2014, 10:44

Anonymous Перейти к последнему сообщению

В этой теме нет новых непрочитанных сообщений. Скачать торрент Проверен Пропавший без вести / The Missing [S01] (2014) BDRip | Amedia

в форуме Зарубежные сериалы, Размер: 7.02 ГБ, Здоровье: 100%

Anonymous

0
133|92

166
315

02 апр 2015, 23:56

Anonymous Перейти к последнему сообщению

В этой теме нет новых непрочитанных сообщений. Скачать торрент Проверен Медальон Хититуйи / Hititya Madalyonun Sirri (2013) HDTVRip [H.264/720p-LQ] [DVO]

в форуме Детское, Семейное кино, Размер: 1.27 ГБ, Здоровье: 100%

Anonymous

0
2|1

54
0

09 авг 2014, 21:29

Anonymous Перейти к последнему сообщению

В этой теме нет новых непрочитанных сообщений. Скачать торрент Не угаснет надежда / All Is Lost (2013) BDRip-AVC | L1

в форуме 720p | 1080p, Размер: 743.5 МБ, Здоровье: 0%

Anonymous

0
0|0

41
0

08 фев 2014, 17:33

Anonymous Перейти к последнему сообщению



Сейчас этот форум просматривают: нет зарегистрированных пользователей и гости: 1


Вы не можете начинать темы
Вы не можете отвечать на сообщения
Вы не можете редактировать свои сообщения
Вы не можете удалять свои сообщения
Вы не можете добавлять вложения

Перейти:  

!ВНИМАНИЕ!
 Ресурс не предоставляет электронные версии произведений, а занимается лишь коллекционированием и каталогизацией ссылок, присылаемых и публикуемых на форуме нашими читателями. Если вы являетесь правообладателем какого-либо представленного материала и не желаете чтобы ссылка на него находилась в нашем каталоге, свяжитесь с нами и мы незамедлительно удалим её. Файлы для обмена на трекере предоставлены пользователями сайта, и администрация не несёт ответственности за их содержание. Просьба не заливать файлы, защищенные авторскими правами, а также файлы нелегального содержания!