На всех торрентах на трекере установлена скидка на скачивание в размере 100 процентов(а).
 Возможность скачивания торрента НЕ зависит от ограничений при низком ратио, низком аплоаде, требуемом ратио или требуемом аплоаде.


Начать новую тему Ответить на тему
Статистика раздачи
Размер: 7.95 ГБ | Добавлен: 17 ноя 2013, 13:46 | Скачали: 0
Сидеров: 14  [0 байт/сек]    Личеров: 1  [0 байт/сек]
Пред. тема | След. тема 

Автор
Сообщение

СообщениеДобавлено: 17 ноя 2013, 13:46 

Солдат Джейн
G.I. Jane
«Failure is not an option.»
Год выпуска: 1997
Страна: США
Жанр: боевик, драма, военный
Продолжительность: 02:05:14
Перевод: Профессиональный (многоголосый закадровый)
Субтитры: Russian (UTF-8), English (UTF-8)

Режиссер: Ридли Скотт


В ролях: Деми Мур / Demi Moore (Jordan O'Neill, $ 11 000 000 ), Вигго Мортенсен / Viggo Mortensen (Master Chief John James Urgayle), Энн Бэнкрофт / Anne Bancroft (Lillian DeHaven), Джейсон Бех / Jason Beghe (Royce), Дэниэл фон Барген / Daniel von Bargen (в титрах: Daniel Von Bargen) (Theodore Hayes), Джон Майкл Хиггинс / John Michael Higgins (Chief of Staff), Кевин Гейдж / Kevin Gage (Instructor Pyro), Дэвид Уоршофски / David Warshofsky (Instructor Johns), Давид Вадим / David Vadim (Cortez), Моррис Честнат / Morris Chestnut (McCool)

Описание: Лейтенант Джордан О`Нил становится первой женщиной, направленной для прохождения элитной программы в центре подготовки «Каталано» во Флориде.Лучшие представители спецподразделений армии США отбираются сюда. 60 процентов из них не выдерживают в этом аду. Школа выживания и уничтожения… Ты должна выстоять, О`Нил!



Рейтинг MPAA: Лицам до 17 лет обязательно присутствие взрослого
Рейтинг ВКИП: для детей старше 16 лет



Качество: BDRip1080р
Формат: MKV
Видео кодек: H.264 (AVC)
Аудио кодеk: AC3
Видео: 1916x820 (2.35:1), 23.976 fps, AVC, 8191 Kbps
Аудио: Аудио #1: AC3, 448 Kbps, 48.0 KHz, 6 ch RUS MVO
Аудио #2: AC3, 448 Kbps, 48.0 KHz, 6 ch ENG

Отдельно:
AC3, 384 Kbps, 48.0 KHz, 6 ch ((Авторский, Гаврилов)

x264 [info]: frame I:1173 Avg QP:14.52 size:143357
x264 [info]: frame P:45581 Avg QP:16.56 size: 68326
x264 [info]: frame B:133412 Avg QP:18.80 size: 33031
**********************************************************
General
Unique ID : 214051892951074667353189957825001120787 (0xA108E5209A3D0CD0B273436EE7436413)
Complete name : G.I. Jane(1997)1080p.F-HD.mkv
Format : Matroska
Format version : Version 4 / Version 2
File size : 7.95 GiB
Duration : 2h 5mn
Overall bit rate : 9 085 Kbps
Encoded date : UTC 2013-08-31 06:59:01
Writing application : mkvmerge v6.2.0 ('Promised Land') built on Apr 28 2013 12:22:01
Writing library : libebml v1.3.0 + libmatroska v1.4.0

Video
ID : 1
Format : AVC
Format/Info : Advanced Video Codec
Format profile : High@L4.1
Format settings, CABAC : Yes
Format settings, ReFrames : 4 frames
Codec ID : V_MPEG4/ISO/AVC
Duration : 2h 5mn
Bit rate : 8 191 Kbps
Width : 1 916 pixels
Height : 820 pixels
Display aspect ratio : 2.35:1
Frame rate mode : Constant
Frame rate : 23.976 fps
Color space : YUV
Chroma subsampling : 4:2:0
Bit depth : 8 bits
Scan type : Progressive
Bits/(Pixel*Frame) : 0.217
Stream size : 7.01 GiB (88%)
Writing library : x264 core 138 r2358kMod 9e941d1
Encoding settings : cabac=1 / ref=4 / deblock=1:-2:-2 / analyse=0x3:0x113 / me=umh / subme=10 / psy=1 / fade_compensate=0.00 / psy_rd=1.00:0.15 / mixed_ref=1 / me_range=48 / chroma_me=1 / trellis=2 / 8x8dct=1 / cqm=0 / deadzone=21,11 / fast_pskip=0 / chroma_qp_offset=-3 / threads=6 / lookahead_threads=1 / sliced_threads=0 / nr=0 / decimate=1 / interlaced=0 / bluray_compat=0 / constrained_intra=0 / bframes=9 / b_pyramid=2 / b_adapt=2 / b_bias=0 / direct=3 / weightb=1 / open_gop=0 / weightp=2 / keyint=250 / keyint_min=23 / scenecut=40 / intra_refresh=0 / rc_lookahead=40 / rc=2pass / mbtree=0 / bitrate=8191 / ratetol=1.0 / qcomp=0.75 / qpmin=0 / qpmax=69 / qpstep=4 / cplxblur=20.0 / qblur=0.5 / vbv_maxrate=50000 / vbv_bufsize=62500 / nal_hrd=none / ip_ratio=1.40 / pb_ratio=1.30 / aq=1:0.80
Language : English
Default : Yes
Forced : No
Matrix coefficients : BT.709

Audio #1
ID : 2
Format : AC-3
Format/Info : Audio Coding 3
Mode extension : CM (complete main)
Format settings, Endianness : Big
Codec ID : A_AC3
Duration : 2h 5mn
Bit rate mode : Constant
Bit rate : 448 Kbps
Channel(s) : 6 channels
Channel positions : Front: L C R, Side: L R, LFE
Sampling rate : 48.0 KHz
Bit depth : 16 bits
Compression mode : Lossy
Stream size : 401 MiB (5%)
Language : Russian
Default : Yes
Forced : No

Audio #2
ID : 3
Format : AC-3
Format/Info : Audio Coding 3
Mode extension : CM (complete main)
Format settings, Endianness : Big
Codec ID : A_AC3
Duration : 2h 5mn
Bit rate mode : Constant
Bit rate : 448 Kbps
Channel(s) : 6 channels
Channel positions : Front: L C R, Side: L R, LFE
Sampling rate : 48.0 KHz
Bit depth : 16 bits
Compression mode : Lossy
Stream size : 401 MiB (5%)
Language : English
Default : No
Forced : No

Text #1
ID : 4
Format : UTF-8
Codec ID : S_TEXT/UTF8
Codec ID/Info : UTF-8 Plain Text
Language : Russian
Default : No
Forced : No

Text #2
ID : 5
Format : UTF-8
Codec ID : S_TEXT/UTF8
Codec ID/Info : UTF-8 Plain Text
Language : English
Default : No
Forced : No

Menu
00:00:00.000 : en:00:00:00.000
00:00:27.194 : en:00:00:27.194
00:09:36.951 : en:00:09:36.951
00:14:00.882 : en:00:14:00.882
00:19:10.816 : en:00:19:10.816
00:31:52.452 : en:00:31:52.452
00:34:55.176 : en:00:34:55.176
00:39:41.462 : en:00:39:41.462
00:43:24.268 : en:00:43:24.268
00:46:11.519 : en:00:46:11.519
00:48:10.221 : en:00:48:10.221
00:54:00.737 : en:00:54:00.737
01:01:13.503 : en:01:01:13.503
01:05:39.519 : en:01:05:39.519
01:15:26.605 : en:01:15:26.605
01:22:09.925 : en:01:22:09.925
01:23:49.358 : en:01:23:49.358
01:27:36.168 : en:01:27:36.168
01:33:39.572 : en:01:33:39.572
01:39:17.702 : en:01:39:17.702
01:44:28.429 : en:01:44:28.429
01:52:05.093 : en:01:52:05.093
01:58:09.207 : en:01:58:09.207





Релиз от:
загрузка...
Правила, инструкции, FAQ!!!
Торрент  Добавлен [17 ноя 2013, 13:46] Скачать торрент
Скачать торрент
[ Размер 40.2 КБ / Просмотров 10 ]

Статус  
 
Размер  7.95 ГБ
Приватный: Нет (DHT включён)
.torrent скачан  0
Как залить торрент? | Как скачать Torrent? | Как смотреть и слушать онлайн?  


     Отправить личное сообщение
   
Страница 1 из 1
Показать сообщения за:  Поле сортировки  
Начать новую тему Ответить на тему

   Похожие торренты   Автор   Ответы   Просмотры   Последнее сообщение 
В этой теме нет новых непрочитанных сообщений. Скачать торрент Проверен Аферисты Дик и Джейн / Fun with Dick and Jane (2005) WEB-DL 1080p | D, P2

в форуме 720p | 1080p, Размер: 4.41 ГБ, Здоровье: 100%

Гость

0
21|2

67
32

12 дек 2015, 21:28

Гость Перейти к последнему сообщению

В этой теме нет новых непрочитанных сообщений. Скачать торрент Джейн Остин / Becoming Jane (Джулиан Джаррольд / Julian Jarrold) [2007, драма, мелодрама, биография, BDRip-AVC] Dub + original + sub (rus, eng)

в форуме 720p | 1080p, Размер: 2.57 ГБ, Здоровье: 100%

Anonymous

0
34|11

38
0

11 фев 2014, 09:13

Anonymous Перейти к последнему сообщению

В этой теме нет новых непрочитанных сообщений. Скачать торрент Жизнь по Джейн Остин / Клуб любителей Джейн Остин / The Jane Austen Book Club (Робин Суикорд / Robin Swicord) [2007, мелодрама, драма, HDRip]

в форуме Драмы, Мелодрамы, Размер: 747.21 МБ, Здоровье: 0%

Anonymous

0
0|0

53
0

02 апр 2014, 12:05

Anonymous Перейти к последнему сообщению

В этой теме нет новых непрочитанных сообщений. Скачать торрент Проверен Большой солдат / Da bing xiao jiang (2010) [1080p] BDRip

в форуме 720p | 1080p, Размер: 9.16 ГБ, Здоровье: 100%

Anonymous

0
5|1

24
0

07 ноя 2014, 15:02

Anonymous Перейти к последнему сообщению

В этой теме нет новых непрочитанных сообщений. Скачать торрент Проверен Универсальный солдат 4 / Universal Soldier: Day of Reckoning (2012) BDRip 1080p | Лицензия

в форуме 720p | 1080p, Размер: 7.65 ГБ, Здоровье: 100%

Anonymous

0
49|4

102
12

29 ноя 2014, 20:01

Anonymous Перейти к последнему сообщению



Сейчас этот форум просматривают: нет зарегистрированных пользователей и гости: 1


Вы не можете начинать темы
Вы не можете отвечать на сообщения
Вы не можете редактировать свои сообщения
Вы не можете удалять свои сообщения
Вы не можете добавлять вложения

Перейти:  

!ВНИМАНИЕ!
 Ресурс не предоставляет электронные версии произведений, а занимается лишь коллекционированием и каталогизацией ссылок, присылаемых и публикуемых на форуме нашими читателями. Если вы являетесь правообладателем какого-либо представленного материала и не желаете чтобы ссылка на него находилась в нашем каталоге, свяжитесь с нами и мы незамедлительно удалим её. Файлы для обмена на трекере предоставлены пользователями сайта, и администрация не несёт ответственности за их содержание. Просьба не заливать файлы, защищенные авторскими правами, а также файлы нелегального содержания!