На всех торрентах на трекере установлена скидка на скачивание в размере 100 процентов(а).
 Возможность скачивания торрента НЕ зависит от ограничений при низком ратио, низком аплоаде, требуемом ратио или требуемом аплоаде.


Начать новую тему Ответить на тему
Статистика раздачи
Размер: 8.73 ГБ | Добавлен: 17 ноя 2013, 13:04 | Скачали: 0
Сидеров: 0  [0 байт/сек]    Личеров: 0  [0 байт/сек]
Пред. тема | След. тема 

Автор
Сообщение

СообщениеДобавлено: 17 ноя 2013, 13:04 

8 миля

8 Mile

«Каждый миг - это шанс»




Год выпуска: 2002
Страна: США
Жанр: драма, музыка
Продолжительность: 01:50:27
Перевод: Профессиональный (дублированный)
Субтитры: Russian(батлы)(UTF-8), Russian (UTF-8), English (UTF-8)

Режиссер: Кёртис Хэнсон
Сценарий: Скотт Сильвер
Продюсер: Брайан Грейзер, Кёртис Хэнсон, Джимми Айовин, ...
Оператор: Родриго Прието
Композитор: Пруф
Художник: Филип Мессина, Кевин Кэвэно, Марк Бриджес, ...
Монтаж: Крэйг Китсон, Джей Рабиновиц

В ролях: Эминем / Eminem (Jimmy «B-Rabbit» Smith, $ 3 000 000 ), Ким Бейсингер / Kim Basinger (Stephanie Smith), Бриттани Мерфи / Brittany Murphy (Alex), Мехи Файфер / Mekhi Phifer (David «Future» Porter), Ивэн Джонс / Evan Jones (Cheddar Bob), Омар Бенсон Миллер / Omar Benson Miller (Sol George), Де’Анджело Уилсон / De'Angelo Wilson (DJ Iz), Юджин Бирд / Eugene Byrd (Wink), Тэрин Мэннинг / Taryn Manning (Janeane), Ларри Хадсон / Larry Hudson (Bouncer)

Описание: Детройт, 1995 год. Блестящая и многообещающая политика индустриального развития города терпит крах и приводит к хаосу и неразберихе, что в результате выливается в один из самых серьезных в американской истории конфликтов между белым и цветным населением. Люди, мирно жившие рядом, оказались по разные стороны баррикад.Шоссе «8 Миля», отделяющее Детройт от пригорода, становится разделительной полосой между черными и белыми. Происходящее в городе находит свое отражение в музыке. В бедных кварталах пригорода, где главная цель — выживание, для многих обитателей хип-хоп становится эмоциональной отдушиной, средством, помогающим вырваться из жесткой повседневной реальности.


Бюджет: $41 000 000
Сборы в США: $116 750 901
Сборы в мире: + $126 068 062 = $242 818 963
Сборы в России: $681 397
Зрители: США 20.1 млн , Великобритания 2.74 млн , Германия 2.62 млн
Премьера (мир): 8 сентября 2002, ...
Премьера (РФ): 6 марта 2003, «Ист-Вест»
Релиз на DVD: 25 июня 2012, «Новый Диск»
Рейтинг MPAA: Лицам до 17 лет обязательно присутствие взрослого



Качество: BDRip 1080р
Формат: MKV
Видео кодек: AVC
Аудио кодеk: AC3
Видео: 1920x816 (2.35:1), 23.976 fps, AVC, 9 154 Kbps

Аудио #1: AC3, 384 Kbps, 48.0 KHz, 6 ch Дублированный
Аудио #2: AC3, 192 Kbps, 48.0 KHz, 2 ch Многоголосый закадровый - СТС
Аудио #3: AC3, 192 Kbps, 48.0 KHz, 2 ch Многоголосый закадровый - ОРТ
Аудио #4: AC3, 384 Kbps, 48.0 KHz, 6 ch English




Отдельно в папке:

Аудио #1: AC3, 448 Kbps, 48.0 KHz, 6 ch Многоголосый закадровый - ОРТ.2
Аудио #2: AC3, 192 Kbps, 48.0 KHz, 2 ch Многоголосый закадровый - Премьер видео
Аудио #3: AC3, 384 Kbps, 48.0 KHz, 6 ch Одноголосый закадровый Дмитрий "sf@irat" Штамп
+ его сабы в раздаче на Рэп! (Нецензурщина)



Лог:
- x264 [info]: frame I:1023 Avg QP:16.88 size:125625
- x264 [info]: frame P:39085 Avg QP:19.21 size: 67798
- x264 [info]: frame B:118799 Avg QP:21.29 size: 40360

General
Complete name : 8.milja.2002.BDRip.1080p.mkv
Format : Matroska
File size : 7.94 GiB
Duration : 1h 50mn
Overall bit rate : 10.3 Mbps
Encoded date : UTC 2013-09-30 13:46:09
Writing application : mkvmerge v6.4.1 ('Omega Point') built on Sep 16 2013 22:05:10
Writing library : libebml v1.3.0 + libmatroska v1.4.1

Video
ID : 1
Format : AVC
Format/Info : Advanced Video Codec
Format profile : High@L4.1
Format settings, CABAC : Yes
Format settings, ReFrames : 5 frames
Muxing mode : Container profile=Unknown@4.1
Codec ID : V_MPEG4/ISO/AVC
Duration : 1h 50mn
Bit rate : 9 154 Kbps
Width : 1 920 pixels
Height : 816 pixels
Display aspect ratio : 2.35:1
Frame rate : 23.976 fps
Color space : YUV
Chroma subsampling : 4:2:0
Bit depth : 8 bits
Scan type : Progressive
Bits/(Pixel*Frame) : 0.244
Stream size : 6.90 GiB (87%)
Writing library : x264 core 138 r2358 9e941d1
Encoding settings : cabac=1 / ref=5 / deblock=1:-1:-1 / analyse=0x3:0x133 / me=umh / subme=10 / psy=1 / psy_rd=1.00:0.00 / mixed_ref=1 / me_range=32 / chroma_me=1 / trellis=2 / 8x8dct=1 / cqm=0 / deadzone=21,11 / fast_pskip=0 / chroma_qp_offset=-2 / threads=6 / lookahead_threads=1 / sliced_threads=0 / nr=0 / decimate=1 / interlaced=0 / bluray_compat=0 / constrained_intra=0 / bframes=10 / b_pyramid=2 / b_adapt=2 / b_bias=0 / direct=3 / weightb=1 / open_gop=0 / weightp=2 / keyint=240 / keyint_min=24 / scenecut=40 / intra_refresh=0 / rc_lookahead=50 / rc=2pass / mbtree=0 / bitrate=9154 / ratetol=2.0 / qcomp=1.00 / qpmin=0 / qpmax=51 / qpstep=4 / cplxblur=20.0 / qblur=0.5 / vbv_maxrate=50000 / vbv_bufsize=62500 / nal_hrd=none / ip_ratio=1.30 / pb_ratio=1.20 / aq=1:1.00
Color primaries : BT.709-5, BT.1361, IEC 61966-2-4, SMPTE RP177
Transfer characteristics : BT.709-5, BT.1361
Matrix coefficients : BT.709-5, BT.1361, IEC 61966-2-4 709, SMPTE RP177

Audio #1
ID : 2
Format : AC-3
Format/Info : Audio Coding 3
Mode extension : CM (complete main)
Codec ID : A_AC3
Duration : 1h 50mn
Bit rate mode : Constant
Bit rate : 384 Kbps
Channel(s) : 6 channels
Channel positions : Front: L C R, Side: L R, LFE
Sampling rate : 48.0 KHz
Bit depth : 16 bits
Stream size : 303 MiB (4%)
Title : Дубляж
Language : Russian

Audio #2
ID : 3
Format : AC-3
Format/Info : Audio Coding 3
Mode extension : CM (complete main)
Codec ID : A_AC3
Duration : 1h 50mn
Bit rate mode : Constant
Bit rate : 192 Kbps
Channel(s) : 2 channels
Channel positions : Front: L R
Sampling rate : 48.0 KHz
Bit depth : 16 bits
Stream size : 152 MiB (2%)
Title : MVO - CTC
Language : Russian

Audio #3
ID : 4
Format : AC-3
Format/Info : Audio Coding 3
Mode extension : CM (complete main)
Codec ID : A_AC3
Duration : 1h 50mn
Bit rate mode : Constant
Bit rate : 192 Kbps
Channel(s) : 2 channels
Channel positions : Front: L R
Sampling rate : 48.0 KHz
Bit depth : 16 bits
Stream size : 152 MiB (2%)
Title : MVO - ОРТ.1
Language : Russian

Audio #4
ID : 5
Format : AC-3
Format/Info : Audio Coding 3
Mode extension : CM (complete main)
Codec ID : A_AC3
Duration : 1h 50mn
Bit rate mode : Constant
Bit rate : 384 Kbps
Channel(s) : 6 channels
Channel positions : Front: L C R, Side: L R, LFE
Sampling rate : 48.0 KHz
Bit depth : 16 bits
Stream size : 303 MiB (4%)
Language : English

Text #1
ID : 6
Format : UTF-8
Codec ID : S_TEXT/UTF8
Codec ID/Info : UTF-8 Plain Text
Title : На Рэп
Language : Russian

Text #2
ID : 7
Format : UTF-8
Codec ID : S_TEXT/UTF8
Codec ID/Info : UTF-8 Plain Text
Title : Дмитрий Штамп (нецензура)
Language : Russian

Text #3
ID : 8
Format : UTF-8
Codec ID : S_TEXT/UTF8
Codec ID/Info : UTF-8 Plain Text
Title : Полные
Language : Russian

Text #4
ID : 9
Format : UTF-8
Codec ID : S_TEXT/UTF8
Codec ID/Info : UTF-8 Plain Text
Language : English

Menu
00:00:00.000 : en:00:00:00.000
00:05:00.000 : en:00:05:00.000
00:10:00.000 : en:00:10:00.000
00:15:00.000 : en:00:15:00.000
00:20:00.000 : en:00:20:00.000
00:25:00.000 : en:00:25:00.000
00:30:00.000 : en:00:30:00.000
00:35:00.000 : en:00:35:00.000
00:40:00.000 : en:00:40:00.000
00:45:00.000 : en:00:45:00.000
00:50:00.000 : en:00:50:00.000
00:55:00.000 : en:00:55:00.000
01:00:00.000 : en:01:00:00.000
01:05:00.000 : en:01:05:00.000
01:10:00.000 : en:01:10:00.000
01:15:00.000 : en:01:15:00.000
01:20:00.000 : en:01:20:00.000
01:25:00.000 : en:01:25:00.000
01:30:00.000 : en:01:30:00.000
01:35:00.000 : en:01:35:00.000
01:40:00.000 : en:01:40:00.000
01:45:00.000 : en:01:45:00.000
01:50:00.000 : en:01:50:00.000


· В съёмках фильма участвовало 150 членов команды и 2500 местных актёров в качестве массовки.

· В начале фильма, Кролик должен соревноваться с рэппером Lil`Tic, которого играет член группы D12 Proof. Он, как и Эминем, был известным детройтским фристайлером.

· Песня «Lose Yourself», написанная Эминемом специально для фильма, была удостоена Оскара, став первой рэп-композицией, победившей в номинации «Лучшая песня».

· В картине говорится, что в Детройте не сносят заброшенные здания, а вместо этого постоянно строят казино. Однако до 1997 года в Детройте не было казино.

· Фильм был снят в Детройте на 27 разных локациях.

· Cъемки заняли 58 дней.





Релиз группы:
загрузка...
Правила, инструкции, FAQ!!!
Торрент  Добавлен [17 ноя 2013, 13:04] Скачать торрент
Скачать торрент
[ Размер 22.72 КБ / Просмотров 5 ]

Статус  
 
Размер  8.73 ГБ
Приватный: Нет (DHT включён)
.torrent скачан  0
Как залить торрент? | Как скачать Torrent? | Как смотреть и слушать онлайн?  


     Отправить личное сообщение
   
Страница 1 из 1
Показать сообщения за:  Поле сортировки  
Начать новую тему Ответить на тему

   Похожие торренты   Автор   Ответы   Просмотры   Последнее сообщение 
В этой теме нет новых непрочитанных сообщений. Скачать торрент 8 миля / 8 Mile (Кёртис Хэнсон / Curtis Hanson) [2002, драма, музыка, BDRip-AVC, 720p] Dub + Original + Subs

в форуме 720p | 1080p, Размер: 1.97 ГБ, Здоровье: 0%

Anonymous

0
0|0

34
0

03 фев 2014, 12:31

Anonymous Перейти к последнему сообщению

В этой теме нет новых непрочитанных сообщений. Скачать торрент Американский пирог 5: голая миля / American Pie Presents The Naked Mile (Джо Нуссбаум / Joe Nussbaum) [2006 г., Комедия, HDTVRip] MVO

в форуме Комедии, Размер: 1.46 ГБ, Здоровье: ???%

Anonymous

0
0|1

74
1

06 фев 2014, 11:43

Anonymous Перейти к последнему сообщению

В этой теме нет новых непрочитанных сообщений. Скачать торрент Проверен Garbage - One Mile High...Live [2013, Alternative Rock, Electronic, BDRip 1080p]

в форуме Концерты (HD-Video), Размер: 6.56 ГБ, Здоровье: 100%

Anonymous

0
1|0

1
0

23 окт 2016, 13:41

Anonymous Перейти к последнему сообщению

В этой теме нет новых непрочитанных сообщений. Скачать торрент Проверен (Blues/Rock) 3 Mile Stone - 3 Mile Stone - 2009, APE (image+.cue), lossless

в форуме Blues (Texas, Chicago, Modern and Others), Размер: 305.26 МБ, Здоровье: 0%

Anonymous

0
0|0

0
0

16 окт 2016, 13:25

Anonymous Перейти к последнему сообщению

В этой теме нет новых непрочитанных сообщений. Скачать торрент Проверен (Blues) Nobby Reed Project - Every Mile (Living Room Records NRP/LLR 00040-40 USA) - 2002, FLAC (tracks+.cue), lossless

в форуме Blues (Texas, Chicago, Modern and Others), Размер: 427.92 МБ, Здоровье: 0%

Anonymous

0
0|0

0
0

16 окт 2016, 10:33

Anonymous Перейти к последнему сообщению



Сейчас этот форум просматривают: нет зарегистрированных пользователей и гости: 2


Вы не можете начинать темы
Вы не можете отвечать на сообщения
Вы не можете редактировать свои сообщения
Вы не можете удалять свои сообщения
Вы не можете добавлять вложения

Перейти:  

!ВНИМАНИЕ!
 Ресурс не предоставляет электронные версии произведений, а занимается лишь коллекционированием и каталогизацией ссылок, присылаемых и публикуемых на форуме нашими читателями. Если вы являетесь правообладателем какого-либо представленного материала и не желаете чтобы ссылка на него находилась в нашем каталоге, свяжитесь с нами и мы незамедлительно удалим её. Файлы для обмена на трекере предоставлены пользователями сайта, и администрация не несёт ответственности за их содержание. Просьба не заливать файлы, защищенные авторскими правами, а также файлы нелегального содержания!