На всех торрентах на трекере установлена скидка на скачивание в размере 100 процентов(а).
 Возможность скачивания торрента НЕ зависит от ограничений при низком ратио, низком аплоаде, требуемом ратио или требуемом аплоаде.


Начать новую тему Ответить на тему
Статистика раздачи
Размер: 7.94 ГБ | Добавлен: 17 ноя 2013, 12:50 | Скачали: 0
Сидеров: 0  [0 байт/сек]    Личеров: 1  [0 байт/сек]
Пред. тема | След. тема 

Автор
Сообщение

СообщениеДобавлено: 17 ноя 2013, 12:50 

Лжец, лжец

Liar Liar

«Верьте мне.»




Год выпуска: 1997
Страна: США
Жанр: фэнтези, комедия
Продолжительность: 01:26:29
Перевод: Профессиональный (многоголосый закадровый)
Субтитры: Russian (UTF-8), English (UTF-8)

Режиссер: Том Шэдьяк
Сценарий: Пол Гюэ, Стефен Мазур
Продюсер: Брайан Грейзер, Майкл Бостик, Джеймс Д. Брубэйкер
Оператор: Рассел Бойд
Композитор: Джон Дебни
Художник: Линда Дессенна, Ричард Тойон, Джуди Л. Рускин, ...
Монтаж: Дон Зиммерман

В ролях: Джим Керри / Jim Carrey (Fletcher Reede, $ 20 000 000 ), Мора Тирни / Maura Tierney (Audrey Reede), Джастин Купер / Justin Cooper (Max Reede), Кэри Элвис / Cary Elwes (Jerry), Энн Хейни / Anne Haney (Greta), Дженнифер Тилли / Jennifer Tilly (Samantha Cole), Аманда Донохью / Amanda Donohoe (Miranda), Джейсон Бернард / Jason Bernard (Judge Marshall Stevens), Свузи Кёрц / Swoosie Kurtz (Dana Appleton), Митч Райан / Mitch Ryan (в титрах: Mitchell Ryan) (Mr. Allan)

Описание: Флетчер Рид — блестящий адвокат и неисправимый лжец. Он по привычке врет жене Одри, сыну Максу и учит клиентов подстраивать правду под свои нужды, перекраивать истину ради своей выгоды. Жена бросает Флетчера из-за его вредной привычки лгать, а сын Макс в свой день рождения, задувая свечи на торте, загадывает только одно желание: «Хочу, чтоб мой любимый папочка перестал постоянно врать».

Желание сбывается, и неожиданно для Флетчера Рида язык, который всегда был его рабочим инструментом, превращается в его главного врага. Флетчер начинает говорить обидную правду своему начальнику и клиентам. Эта правдивость может стоить адвокату работы! Но самое страшное ждет правдивого поневоле Флетчера в зале суда, когда будет слушаться дело о разводе его клиента. Без вранья он не сможет выиграть! Да, этот день своей жизни Флетчер Рид не забудет никогда…



Бюджет: $45 000 000
Сборы в США: $181 410 615
Сборы в мире: + $121 300 000 = $302 710 615
Зрители: США 38.7 млн , Великобритания 3.17 млн , Испания 1.68 млн
Премьера (мир): 21 марта 1997, ...
Релиз на DVD: 6 декабря 2012, «Двадцатый Век Фокс СНГ»,
Релиз на Blu-Ray: 9 ноября 2010, «Юниверсал Пикчерс Рус»,
Рейтинг MPAA: Детям до 13 лет просмотр не желателен



Качество: BDRip 1080р
Формат: MKV
Видео кодек: AVC
Аудио кодеk: AC3
Видео: 1920x1040 (16:9), 23.976 fps, AVC, 10.7 Mbps

Аудио #1: AC3, 448 Kbps, 48.0 KHz, 2 ch (MVO - Премьер Видео)
Аудио #2: AC3, 192 Kbps, 48.0 KHz, 2 ch (MVO - НТВ)
Аудио #3: AC3, 192 Kbps, 48.0 KHz, 2 ch (MVO - СТС)
Аудио #4: AC3, 448 Kbps, 48.0 KHz, 6 ch (AVO - Живов)
Аудио #5: AC3, 448 Kbps, 48.0 KHz, 6 ch (AVO - Завгородний)
Аудио #6: AC3, 192 Kbps, 48.0 KHz, 2 ch (AVO - Антонов)
Аудио #7: AC3, 192 Kbps, 48.0 KHz, 2 ch Ukr.(MVO)
Аудио #8: AC3, 384 Kbps, 48.0 KHz, 6 ch (English)





General
Complete name : Lzhec_Lzhec.1997.BDRip.1080p.mkv
Format : Matroska
File size : 7.94 GiB
Duration : 1h 26mn
Overall bit rate : 13.1 Mbps
Encoded date : UTC 2013-09-25 06:14:58
Writing application : mkvmerge v6.3.0 ('You can't stop me!') built on Jun 28 2013 20:09:41
Writing library : libebml v1.3.0 + libmatroska v1.4.0

Video
ID : 1
Format : AVC
Format/Info : Advanced Video Codec
Format profile : High@L4.1
Format settings, CABAC : Yes
Format settings, ReFrames : 4 frames
Muxing mode : Container profile=Unknown@4.1
Codec ID : V_MPEG4/ISO/AVC
Duration : 1h 26mn
Bit rate : 10.7 Mbps
Width : 1 920 pixels
Height : 1 040 pixels
Display aspect ratio : 16:9
Frame rate : 23.976 fps
Color space : YUV
Chroma subsampling : 4:2:0
Bit depth : 8 bits
Scan type : Progressive
Bits/(Pixel*Frame) : 0.223
Stream size : 6.28 GiB (79%)
Writing library : x264 core 138 r2358 9e941d1
Encoding settings : cabac=1 / ref=4 / deblock=1:-1:-1 / analyse=0x3:0x133 / me=umh / subme=10 / psy=1 / psy_rd=1.00:0.00 / mixed_ref=1 / me_range=32 / chroma_me=1 / trellis=2 / 8x8dct=1 / cqm=0 / deadzone=21,11 / fast_pskip=0 / chroma_qp_offset=-2 / threads=6 / lookahead_threads=1 / sliced_threads=0 / nr=0 / decimate=1 / interlaced=0 / bluray_compat=0 / constrained_intra=0 / bframes=9 / b_pyramid=2 / b_adapt=2 / b_bias=0 / direct=3 / weightb=1 / open_gop=0 / weightp=2 / keyint=240 / keyint_min=24 / scenecut=40 / intra_refresh=0 / rc_lookahead=120 / rc=2pass / mbtree=1 / bitrate=10666 / ratetol=2.0 / qcomp=0.80 / qpmin=0 / qpmax=51 / qpstep=4 / cplxblur=20.0 / qblur=0.5 / vbv_maxrate=50000 / vbv_bufsize=62500 / nal_hrd=none / ip_ratio=1.10 / aq=2:0.80
Color primaries : BT.709-5, BT.1361, IEC 61966-2-4, SMPTE RP177
Transfer characteristics : BT.709-5, BT.1361
Matrix coefficients : BT.709-5, BT.1361, IEC 61966-2-4 709, SMPTE RP177

Audio #1
ID : 2
Format : AC-3
Format/Info : Audio Coding 3
Mode extension : CM (complete main)
Codec ID : A_AC3
Duration : 1h 26mn
Bit rate mode : Constant
Bit rate : 448 Kbps
Channel(s) : 2 channels
Channel positions : Front: L R
Sampling rate : 48.0 KHz
Bit depth : 16 bits
Stream size : 277 MiB (3%)
Title : MVO - Премьер Видео
Language : Russian

Audio #2
ID : 3
Format : AC-3
Format/Info : Audio Coding 3
Mode extension : CM (complete main)
Codec ID : A_AC3
Duration : 1h 26mn
Bit rate mode : Constant
Bit rate : 192 Kbps
Channel(s) : 2 channels
Channel positions : Front: L R
Sampling rate : 48.0 KHz
Bit depth : 16 bits
Stream size : 119 MiB (1%)
Title : MVO - НТВ
Language : Russian

Audio #3
ID : 4
Format : AC-3
Format/Info : Audio Coding 3
Mode extension : CM (complete main)
Codec ID : A_AC3
Duration : 1h 26mn
Bit rate mode : Constant
Bit rate : 192 Kbps
Channel(s) : 2 channels
Channel positions : Front: L R
Sampling rate : 48.0 KHz
Bit depth : 16 bits
Stream size : 119 MiB (1%)
Title : MVO - СТС
Language : Russian

Audio #4
ID : 5
Format : AC-3
Format/Info : Audio Coding 3
Mode extension : CM (complete main)
Codec ID : A_AC3
Duration : 1h 26mn
Bit rate mode : Constant
Bit rate : 448 Kbps
Channel(s) : 6 channels
Channel positions : Front: L C R, Side: L R, LFE
Sampling rate : 48.0 KHz
Bit depth : 16 bits
Stream size : 277 MiB (3%)
Title : AVO - Живов
Language : Russian

Audio #5
ID : 6
Format : AC-3
Format/Info : Audio Coding 3
Mode extension : CM (complete main)
Codec ID : A_AC3
Duration : 1h 26mn
Bit rate mode : Constant
Bit rate : 448 Kbps
Channel(s) : 6 channels
Channel positions : Front: L C R, Side: L R, LFE
Sampling rate : 48.0 KHz
Bit depth : 16 bits
Stream size : 277 MiB (3%)
Title : AVO - Завгородний
Language : Russian

Audio #6
ID : 7
Format : AC-3
Format/Info : Audio Coding 3
Mode extension : CM (complete main)
Codec ID : A_AC3
Duration : 1h 26mn
Bit rate mode : Constant
Bit rate : 192 Kbps
Channel(s) : 2 channels
Channel positions : Front: L R
Sampling rate : 48.0 KHz
Bit depth : 16 bits
Stream size : 119 MiB (1%)
Title : AVO - Антонов
Language : Russian

Audio #7
ID : 8
Format : AC-3
Format/Info : Audio Coding 3
Mode extension : CM (complete main)
Codec ID : A_AC3
Duration : 1h 26mn
Bit rate mode : Constant
Bit rate : 192 Kbps
Channel(s) : 2 channels
Channel positions : Front: L R
Sampling rate : 48.0 KHz
Bit depth : 16 bits
Stream size : 119 MiB (1%)
Title : MVO
Language : Ukrainian

Audio #8
ID : 9
Format : AC-3
Format/Info : Audio Coding 3
Mode extension : CM (complete main)
Codec ID : A_AC3
Duration : 1h 26mn
Bit rate mode : Constant
Bit rate : 384 Kbps
Channel(s) : 6 channels
Channel positions : Front: L C R, Side: L R, LFE
Sampling rate : 48.0 KHz
Bit depth : 16 bits
Stream size : 238 MiB (3%)
Language : English

Text #1
ID : 10
Format : UTF-8
Codec ID : S_TEXT/UTF8
Codec ID/Info : UTF-8 Plain Text
Language : Russian

Text #2
ID : 11
Format : UTF-8
Codec ID : S_TEXT/UTF8
Codec ID/Info : UTF-8 Plain Text
Language : English


· Фильм посвящается Джейсону Бернарду (Jason Bernard), который играл судью Стивенса и вскоре после съёмок скончался от сердечного приступа.

· Учительница в классе читает Максу и другим детям стишок «Green Eggs and Ham» Доктора Сьюза, который также написал сказку «Как Гринч украл Рождество», в экранизации которой Гринча играет Джим Кэрри.

· Ради этого фильма Джим Кэрри отказался от роли Доктора Зло в фильме «Остин Пауэрс: Человек-загадка международного масштаба» (1997).

· Вместо Кэрри роль Флэтчера Рида должен был играть Стив Мартин, отказавшийся от неё из-за занятости в других проектах.

· Когда Кэрри избивает сам себя в уборной, звуки в фильме — не переозвучка, это действительно звуки того, как он бьётся головой об унитаз, стены и прочие подручные предметы.




Релиз группы:
загрузка...
Правила, инструкции, FAQ!!!
Торрент  Добавлен [17 ноя 2013, 12:50] Скачать торрент
Скачать торрент
[ Размер 20.47 КБ / Просмотров 6 ]

Статус  
 
Размер  7.94 ГБ
Приватный: Нет (DHT включён)
.torrent скачан  0
Как залить торрент? | Как скачать Torrent? | Как смотреть и слушать онлайн?  


     Отправить личное сообщение
   
Страница 1 из 1
Показать сообщения за:  Поле сортировки  
Начать новую тему Ответить на тему

   Похожие торренты   Автор   Ответы   Просмотры   Последнее сообщение 
В этой теме нет новых непрочитанных сообщений. Скачать торрент Проверен Лжец, лжец / Liar Liar (1997) BDRip 720p

в форуме 720p | 1080p, Размер: 4.86 ГБ, Здоровье: 100%

Anonymous

0
33|11

13
66

26 сен 2014, 16:52

Anonymous Перейти к последнему сообщению

В этой теме нет новых непрочитанных сообщений. Скачать торрент Большой толстый лжец / Big Fat Liar (Шон Леви /Shawn Levy) [2002 г., Комедия, DVDRip]

в форуме Комедии, Размер: 1.37 ГБ, Здоровье: 0%

Anonymous

0
0|0

44
0

29 апр 2014, 13:57

Anonymous Перейти к последнему сообщению

В этой теме нет новых непрочитанных сообщений. Скачать торрент Проверен (Melodic Rock) Liar's Dice - Liar's Dice - 1988, MP3, 320 kbps

в форуме Classic Rock & Hard Rock, Размер: 68.4 МБ, Здоровье: 0%

Anonymous

0
0|0

0
0

14 ноя 2016, 20:02

Anonymous Перейти к последнему сообщению

В этой теме нет новых непрочитанных сообщений. Скачать торрент Проверен (Heavy Metal) [CD] Motorhead - Liar - 1997, FLAC (image+.cue), lossless

в форуме Heavy, Power, Progressive (Metal), Размер: 469.12 МБ, Здоровье: 100%

Anonymous

0
1|0

2
0

11 окт 2016, 20:22

Anonymous Перейти к последнему сообщению

В этой теме нет новых непрочитанных сообщений. Скачать торрент Проверен Ирвин Ялом - Лжец на кушетке [2004, DOC, RUS]

в форуме Зарубежная литература (XX и XXI век), Размер: 1.77 МБ, Здоровье: 100%

Anonymous

0
27|8

1
1

08 сен 2016, 20:21

Anonymous Перейти к последнему сообщению



Сейчас этот форум просматривают: нет зарегистрированных пользователей и гости: 1


Вы не можете начинать темы
Вы не можете отвечать на сообщения
Вы не можете редактировать свои сообщения
Вы не можете удалять свои сообщения
Вы не можете добавлять вложения

Перейти:  

!ВНИМАНИЕ!
 Ресурс не предоставляет электронные версии произведений, а занимается лишь коллекционированием и каталогизацией ссылок, присылаемых и публикуемых на форуме нашими читателями. Если вы являетесь правообладателем какого-либо представленного материала и не желаете чтобы ссылка на него находилась в нашем каталоге, свяжитесь с нами и мы незамедлительно удалим её. Файлы для обмена на трекере предоставлены пользователями сайта, и администрация не несёт ответственности за их содержание. Просьба не заливать файлы, защищенные авторскими правами, а также файлы нелегального содержания!