На всех торрентах на трекере установлена скидка на скачивание в размере 100 процентов(а).
 Возможность скачивания торрента НЕ зависит от ограничений при низком ратио, низком аплоаде, требуемом ратио или требуемом аплоаде.


Начать новую тему Ответить на тему
Статистика раздачи
Размер: 11.29 ГБ | Добавлен: 16 ноя 2013, 19:54 | Скачали: 0
Сидеров: 0  [0 байт/сек]    Личеров: 0  [0 байт/сек]
Пред. тема | След. тема 

Автор
Сообщение

СообщениеДобавлено: 16 ноя 2013, 19:54 

Название: Орудия смерти: Город костей
Оригинальное название: The Mortal Instruments: City of Bones
Год выпуска: 2013
Жанр: Фэнтези, боевик, драма, мелодрама, детектив, приключения
Выпущено: США, Германия, Constantin Film Produktion, Sony Pictures Entertainment (SPE), Unique Features
Режиссер: Харольд Цварт

В ролях: Джейми Кэмпбелл Бауэр, Лили Коллинз, Лина Хиди, Эйдан Тёрнер, Джонатан Рис-Майерс, Роберт Шиэн, Джемайма Уэст, Кевин Зегерс, Джаред Харрис, Кевин Дюран, Си Си Эйч Паундер, Гарри Ван Горкум, Стивен Р. Харт, Годфри Гао, Чад Коннелл

О фильме: Клэри Фрэй всегда считала себя самой обыкновенной девушкой, пока не выяснилось, что она — потомок древнего рода Сумеречных Охотников, тайной касты воинов-полуангелов, защищающих наш мир от демонов. Когда мама Клэри исчезает, девушка объединяется с Сумеречными охотниками, чтобы спасти ее. Так начинается ее опасное знакомство с иной реальностью, в которой существуют демоны, маги, вампиры, оборотни и другие смертоносные существа.




Качество: BDRip (1080p)
Видео: MPEG-4 AVC, 10500 Кбит/с, 1920x800
Аудио: Русский (АС3, 6 ch, 448 Кбит/с), английский (DTS, 6 ch, 1510 Кбит/с)

Продолжительность: 02:10:15
Перевод: Профессиональный многоголосый

бщее
Уникальный идентификатор : 181388441301485443326686100240212254691 (0x887624A00709A22A89923286FF615FE3)
Полное имя : D:The.Mortal.Instruments.City.Of.Bones.2013.1080p.BluRay.DTS.x264.mkv
Формат : Matroska
Версия формата : Version 2
Размер файла : 11,3 Гбайт
Продолжительность : 2 ч. 10 м.
Общий поток : 12,4 Мбит/сек
Дата кодирования : UTC 2013-11-16 15:33:17
Программа кодирования : mkvmerge v6.3.0 ('You can't stop me!') built on Jun 28 2013 20:09:41
Библиотека кодирования : libebml v1.3.0 + libmatroska v1.4.0
Видео
Идентификатор : 1
Формат : AVC
Формат/Информация : Advanced Video Codec
Профиль формата : High@L4.1
Параметр CABAC формата : Да
Параметр ReFrames формата : 5 кадров
Идентификатор кодека : V_MPEG4/ISO/AVC
Продолжительность : 2 ч. 10 м.
Битрейт : 10,5 Мбит/сек
Ширина : 1920 пикселей
Высота : 800 пикселей
Соотношение сторон : 2,40:1
Режим частоты кадров : Постоянный
Частота кадров : 23,976 кадра/сек
Цветовое пространство : YUV
Субдискретизация насыщенности : 4:2:0
Битовая глубина : 8 бит
Тип развёртки : Прогрессивная
Бит/(Пиксели*Кадры) : 0.284
Размер потока : 9,29 Гбайт (82%)
Библиотека кодирования : x264 core 133 r2334+704+50 a7549b7 tMod [8-bit@4:2:0 X86_64]
Настройки программы : cabac=1 / ref=5 / deblock=1:-3:-3 / analyse=0x3:0x113 / me=umh / subme=10 / psy=1 / fade_compensate=0.00 / psy_rd=1.05:0.02 / mixed_ref=1 / me_range=32 / chroma_me=1 / trellis=2 / 8x8dct=1 / cqm=0 / deadzone=21,11 / fast_pskip=1 / chroma_qp_offset=-3 / threads=16 / lookahead_threads=1 / sliced_threads=0 / nr=0 / decimate=1 / interlaced=0 / bluray_compat=0 / constrained_intra=0 / fgo=0 / bframes=6 / b_pyramid=2 / b_adapt=1 / b_bias=0 / direct=3 / weightb=1 / open_gop=0 / weightp=2 / keyint=240 / keyint_min=23 / scenecut=40 / intra_refresh=0 / rc_lookahead=50 / rc=2pass / mbtree=1 / bitrate=10458 / ratetol=1.0 / qcomp=0.70 / qpmin=0 / qpmax=69 / qpstep=4 / cplxblur=20.0 / qblur=0.5 / vbv_maxrate=50000 / vbv_bufsize=50000 / nal_hrd=none / ip_ratio=1.40 / aq=4:0.85 / aq-sensitivity=10.00 / aq-factor=1.00:1.00:1.00 / aq2=0 / aq3=0
Язык : English
Default : Да
Forced : Нет
Аудио #1
Идентификатор : 2
Формат : AC-3
Формат/Информация : Audio Coding 3
Расширение режима : CM (complete main)
Параметр Endianness формата : Big
Идентификатор кодека : A_AC3
Продолжительность : 2 ч. 10 м.
Вид битрейта : Постоянный
Битрейт : 448 Кбит/сек
Каналы : 6 каналов
Расположение каналов : Front: L C R, Side: L R, LFE
Частота : 48,0 КГц
Битовая глубина : 16 бит
Метод сжатия : С потерями
Размер потока : 417 Мбайт (4%)
Язык : Russian
Default : Да
Forced : Нет
Аудио #2
Идентификатор : 3
Формат : DTS
Формат/Информация : Digital Theater Systems
Режим : 16
Параметр Endianness формата : Big
Идентификатор кодека : A_DTS
Продолжительность : 2 ч. 10 м.
Вид битрейта : Постоянный
Битрейт : 1509 Кбит/сек
Каналы : 6 каналов
Расположение каналов : Front: L C R, Side: L R, LFE
Частота : 48,0 КГц
Битовая глубина : 24 бит
Метод сжатия : С потерями
Размер потока : 1,37 Гбайт (12%)
Язык : English
Default : Нет
Forced : Нет
Меню
00:00:00.000 : en:00:00:00.000
00:08:04.609 : en:00:08:04.609
00:15:02.360 : en:00:15:02.360
00:22:18.379 : en:00:22:18.379
00:29:46.034 : en:00:29:46.034
00:38:43.071 : en:00:38:43.071
00:44:12.859 : en:00:44:12.859
00:49:45.232 : en:00:49:45.232
00:59:47.667 : en:00:59:47.667
01:06:47.295 : en:01:06:47.295
01:15:36.866 : en:01:15:36.866
01:22:36.034 : en:01:22:36.034
01:30:04.149 : en:01:30:04.149
01:37:07.572 : en:01:37:07.572
01:46:02.189 : en:01:46:02.189
01:54:13.013 : en:01:54:13.013






загрузка...
Правила, инструкции, FAQ!!!
Торрент  Добавлен [16 ноя 2013, 19:54] Скачать торрент
Скачать торрент
[ Размер 57.01 КБ / Просмотров 7 ]

Статус  
 
Размер  11.29 ГБ
Приватный: Нет (DHT включён)
.torrent скачан  0
Как залить торрент? | Как скачать Torrent? | Как смотреть и слушать онлайн?  


     Отправить личное сообщение
   
Страница 1 из 1
Показать сообщения за:  Поле сортировки  
Начать новую тему Ответить на тему

   Похожие торренты   Автор   Ответы   Просмотры   Последнее сообщение 
В этой теме нет новых непрочитанных сообщений. Скачать торрент Проверен Потерянный город / The Lost City (2005) BDRip 1080p | D, P

в форуме 720p | 1080p, Размер: 12.94 ГБ, Здоровье: 62%

Гость

0
5|8

206
4

09 авг 2015, 22:49

Гость Перейти к последнему сообщению

В этой теме нет новых непрочитанных сообщений. Скачать торрент Проверен Темный город / Dark City (1998) BDRip 1080p | Режиссерская версия / Director's Cut

в форуме 720p | 1080p, Размер: 5.77 ГБ, Здоровье: 100%

Гость

0
74|11

44
283

19 янв 2015, 21:16

Гость Перейти к последнему сообщению

В этой теме нет новых непрочитанных сообщений. Скачать торрент Проверен Город жизни и смерти / City of Life and Death (2009) HDRip | P

в форуме Военные, Размер: 2.18 ГБ, Здоровье: 100%

Гость

0
70|30

392
85

07 июн 2015, 22:40

Гость Перейти к последнему сообщению

В этой теме нет новых непрочитанных сообщений. Скачать торрент Проверен Город звука / Sound City [США, 2013, Документальный, музыка, BDRemux 1080p] DVO (Омикрон)

в форуме Концерты (HD-Video), Размер: 30.48 ГБ, Здоровье: 100%

Anonymous

0
5|1

2
0

23 окт 2016, 15:25

Anonymous Перейти к последнему сообщению

В этой теме нет новых непрочитанных сообщений. Скачать торрент Проверен Город грехов 2: Женщина, ради которой стоит убивать / Sin City: A Dame to Kill For (2014) BDRip 1080p от Ash61 | 3D-Video | halfOU

в форуме HD-Video в 3D, Размер: 7.52 ГБ, Здоровье: 100%

Anonymous

0
177|21

285
2432

08 ноя 2014, 18:36

Anonymous Перейти к последнему сообщению



Сейчас этот форум просматривают: нет зарегистрированных пользователей и гости: 2


Вы не можете начинать темы
Вы не можете отвечать на сообщения
Вы не можете редактировать свои сообщения
Вы не можете удалять свои сообщения
Вы не можете добавлять вложения

Перейти:  

!ВНИМАНИЕ!
 Ресурс не предоставляет электронные версии произведений, а занимается лишь коллекционированием и каталогизацией ссылок, присылаемых и публикуемых на форуме нашими читателями. Если вы являетесь правообладателем какого-либо представленного материала и не желаете чтобы ссылка на него находилась в нашем каталоге, свяжитесь с нами и мы незамедлительно удалим её. Файлы для обмена на трекере предоставлены пользователями сайта, и администрация не несёт ответственности за их содержание. Просьба не заливать файлы, защищенные авторскими правами, а также файлы нелегального содержания!