На всех торрентах на трекере установлена скидка на скачивание в размере 100 процентов(а).
 Возможность скачивания торрента НЕ зависит от ограничений при низком ратио, низком аплоаде, требуемом ратио или требуемом аплоаде.


Начать новую тему Ответить на тему
Статистика раздачи
Размер: 2.18 ГБ | Добавлен: 16 ноя 2013, 13:26 | Скачали: 0
Сидеров: 0  [0 байт/сек]    Личеров: 0  [0 байт/сек]
Пред. тема | След. тема 

Автор
Сообщение

СообщениеДобавлено: 16 ноя 2013, 13:26 

Название: На исходе дня
Оригинальное название: The Remains of the Day
Год выхода: 1993
Жанр: драма, мелодрама
Режиссер: Джеймс Айвори

В ролях: Энтони Хопкинс, Эмма Томпсон, Джеймс Фокс, Хью Грант, Кристофер Рив, Питер Вон, Микаэль Лонсдаль, Бен Чаплин, Лина Хиди, Тим Пиготт-Смит...

О фильме: Стивенс — образцовый английский дворецкий, который всю жизнь провел в старинном поместье. Он отдал свое сердце беззаветному служению, и нет ничего, что может заставить его изменить долгу. Неожиданно привычное течение дней нарушается, когда в поместье появляется новая экономка, мисс Кентон.

Стивенс пытается скрыть глубокие чувства к этой женщине, но ни вековая традиция, ни священные обязанности не могут остановить вспыхнувшую любовь. И лишь теперь, на закате дней, преданный дворецкий открыл для себя тот единственный идеал, который достоин истинного служения…



Страна: Великобритания, США
Продолжительность: 02:14:15
Перевод: Профессиональный (двухголосый закадровый), Оригинал (Английский)


Кодек: х.264
Качество: BDRip-AVC
Видео: 1024x432 (2,40:1), 23.976 fps, 1495 kbps, 0.141 bit/pixel
Аудио #1: 48 kHz, AC3 Dolby Digital, 6 ch, ~448.00 kbps (Русский)
Аудио #2: 48 kHz, AC3 Dolby Digital, 6 ch, ~384.00 kbps (Английский)
Субтитры: Русские, Английские (отключаемые)

&

Общее
Уникальный идентификатор : 213770409559743228784998615131943968023 (0xA0D2AEECB75C01D1977627E7F6999D17)
Полное имя : D:The Remains of the Day.1993.BDRip-AVC.mkv
Формат : Matroska
Версия формата : Version 4 / Version 2
Размер файла : 2,18 Гбайт
Продолжительность : 2 ч. 14 м.
Общий поток : 2326 Кбит/сек
Название фильма : На исходе дня / The Remains of the Day (1993) BDRip-AVC rip by Rulya74
Дата кодирования : UTC 2013-11-17 06:50:51
Программа кодирования : mkvmerge v6.2.0 ('Promised Land') built on Apr 28 2013 12:22:01
Библиотека кодирования : libebml v1.3.0 + libmatroska v1.4.0

Видео
Идентификатор : 1
Формат : AVC
Формат/Информация : Advanced Video Codec
Профиль формата : High@L4.1
Параметр CABAC формата : Да
Параметр ReFrames формата : 12 кадров
Идентификатор кодека : V_MPEG4/ISO/AVC
Продолжительность : 2 ч. 14 м.
Битрейт : 1495 Кбит/сек
Ширина : 1024 пикселя
Высота : 432 пикселя
Соотношение сторон : 2,40:1
Режим частоты кадров : Постоянный
Частота кадров : 23,976 кадра/сек
Цветовое пространство : YUV
Субдискретизация насыщенности : 4:2:0
Битовая глубина : 8 бит
Тип развёртки : Прогрессивная
Бит/(Пиксели*Кадры) : 0.141
Размер потока : 1,36 Гбайт (62%)
Библиотека кодирования : x264 core 133 r2334 a3ac64b
Настройки программы : cabac=1 / ref=12 / deblock=1:-3:-3 / analyse=0x3:0x113 / me=umh / subme=11 / psy=1 / psy_rd=1.02:0.04 / mixed_ref=1 / me_range=48 / chroma_me=1 / trellis=2 / 8x8dct=1 / cqm=0 / deadzone=21,11 / fast_pskip=0 / chroma_qp_offset=-3 / threads=4 / lookahead_threads=1 / sliced_threads=0 / nr=0 / decimate=1 / interlaced=0 / bluray_compat=0 / constrained_intra=0 / bframes=10 / b_pyramid=2 / b_adapt=1 / b_bias=0 / direct=3 / weightb=1 / open_gop=0 / weightp=2 / keyint=240 / keyint_min=22 / scenecut=40 / intra_refresh=0 / rc_lookahead=40 / rc=2pass / mbtree=1 / bitrate=1495 / ratetol=1.0 / qcomp=0.60 / qpmin=10 / qpmax=69 / qpstep=4 / cplxblur=20.0 / qblur=0.5 / vbv_maxrate=62500 / vbv_bufsize=78125 / nal_hrd=none / ip_ratio=1.40 / aq=1:1.00
Default : Да
Forced : Нет

Аудио #1
Идентификатор : 2
Формат : AC-3
Формат/Информация : Audio Coding 3
Расширение режима : CM (complete main)
Параметр Endianness формата : Big
Идентификатор кодека : A_AC3
Продолжительность : 2 ч. 14 м.
Вид битрейта : Постоянный
Битрейт : 448 Кбит/сек
Каналы : 6 каналов
Расположение каналов : Front: L C R, Side: L R, LFE
Частота : 48,0 КГц
Битовая глубина : 16 бит
Метод сжатия : С потерями
Размер потока : 430 Мбайт (19%)
Заголовок : Профессиональный (двухголосый закадровый)
Язык : Russian
Default : Да
Forced : Нет

Аудио #2
Идентификатор : 3
Формат : AC-3
Формат/Информация : Audio Coding 3
Расширение режима : CM (complete main)
Параметр Endianness формата : Big
Идентификатор кодека : A_AC3
Продолжительность : 2 ч. 14 м.
Вид битрейта : Постоянный
Битрейт : 384 Кбит/сек
Каналы : 6 каналов
Расположение каналов : Front: L C R, Side: L R, LFE
Частота : 48,0 КГц
Битовая глубина : 16 бит
Метод сжатия : С потерями
Размер потока : 369 Мбайт (17%)
Заголовок : Оригинал
Язык : English
Default : Нет
Forced : Нет

Текст #1
Идентификатор : 4
Формат : UTF-8
Идентификатор кодека : S_TEXT/UTF8
Идентификатор кодека/Информация : UTF-8 Plain Text
Язык : Russian
Default : Да
Forced : Нет

Текст #2
Идентификатор : 5
Формат : UTF-8
Идентификатор кодека : S_TEXT/UTF8
Идентификатор кодека/Информация : UTF-8 Plain Text
Язык : English
Default : Нет
Forced : Нет

загрузка...
Правила, инструкции, FAQ!!!
Торрент  Добавлен [16 ноя 2013, 13:26] Скачать торрент
Скачать торрент
[ Размер 11.33 КБ / Просмотров 4 ]

Статус  
 
Размер  2.18 ГБ
Приватный: Нет (DHT включён)
.torrent скачан  0
Как залить торрент? | Как скачать Torrent? | Как смотреть и слушать онлайн?  


     Отправить личное сообщение
   
Страница 1 из 1
Показать сообщения за:  Поле сортировки  
Начать новую тему Ответить на тему

   Похожие торренты   Автор   Ответы   Просмотры   Последнее сообщение 
В этой теме нет новых непрочитанных сообщений. Скачать торрент Проверен (Psychedelic Rock, Classic Rock) [24/96] [MONO] [LP] Remains - Remains - 1966, FLAC (tracks)

в форуме Зарубежный рок (оцифровки), Размер: 304.37 МБ, Здоровье: 100%

Anonymous

0
1|0

0
0

27 авг 2016, 10:28

Anonymous Перейти к последнему сообщению

В этой теме нет новых непрочитанных сообщений. Скачать торрент Проверен Led Zeppelin - The Song Remains The Same (1976) BDRip 1080p

в форуме Концерты (HD-Video), Размер: 15.19 ГБ, Здоровье: 100%

Anonymous

0
81|28

144
10

26 авг 2015, 19:03

Anonymous Перейти к последнему сообщению

В этой теме нет новых непрочитанных сообщений. Скачать торрент Проверен Led Zeppelin: The Song Remains The Same [1976/2007, Rock, BDRip, 1080p]

в форуме Концерты (HD-Video), Размер: 12.64 ГБ, Здоровье: 100%

Anonymous

0
28|9

13
1

23 окт 2016, 19:45

Anonymous Перейти к последнему сообщению

В этой теме нет новых непрочитанных сообщений. Скачать торрент Проверен Башкатов А.Д. - На исходе осеннего дня [2011, DjVu, RUS]

в форуме Русская литература, Размер: 3.72 МБ, Здоровье: 0%

Anonymous

0
0|0

0
0

07 сен 2016, 22:04

Anonymous Перейти к последнему сообщению

В этой теме нет новых непрочитанных сообщений. Скачать торрент Проверен Фридрих Незнанский - На исходе последнего часа [Татьяна Швец, 2004]

в форуме Детектив и Боевики, Размер: 599.98 МБ, Здоровье: 0%

Anonymous

0
0|0

6
0

04 май 2016, 22:32

Anonymous Перейти к последнему сообщению



Сейчас этот форум просматривают: нет зарегистрированных пользователей и гости: 2


Вы не можете начинать темы
Вы не можете отвечать на сообщения
Вы не можете редактировать свои сообщения
Вы не можете удалять свои сообщения
Вы не можете добавлять вложения

Перейти:  

!ВНИМАНИЕ!
 Ресурс не предоставляет электронные версии произведений, а занимается лишь коллекционированием и каталогизацией ссылок, присылаемых и публикуемых на форуме нашими читателями. Если вы являетесь правообладателем какого-либо представленного материала и не желаете чтобы ссылка на него находилась в нашем каталоге, свяжитесь с нами и мы незамедлительно удалим её. Файлы для обмена на трекере предоставлены пользователями сайта, и администрация не несёт ответственности за их содержание. Просьба не заливать файлы, защищенные авторскими правами, а также файлы нелегального содержания!