На всех торрентах на трекере установлена скидка на скачивание в размере 100 процентов(а).
 Возможность скачивания торрента НЕ зависит от ограничений при низком ратио, низком аплоаде, требуемом ратио или требуемом аплоаде.


Начать новую тему Ответить на тему
Статистика раздачи
Размер: 5.55 ГБ | Добавлен: 15 ноя 2013, 06:32 | Скачали: 0
Сидеров: 0  [0 байт/сек]    Личеров: 0  [0 байт/сек]
Пред. тема | След. тема 

Автор
Сообщение

СообщениеДобавлено: 15 ноя 2013, 06:32 

Название: Рожденный дважды
Оригинальное название: Twice Born / Volver a nacer / Venuto al mondo
Год выхода: 2012
Жанр: драма
Режиссер: Серджо Кастеллитто

В ролях: Пенелопа Крус, Эмиль Хирш, Аднан Хаскович, Саадет Аксой, Пьетро Кастеллитто, Джейн Биркин, Люка Де Филиппо, Мира Фурлан, Серджо Кастеллитто, Бранко Джури

О фильме:
Молодая девушка Джемма приехала в Югославию, чтобы подробно изучить жизнь выдающегося писателя Иво Андрича. Ее гидом становится веселый молодой человек Гойко. Именно он знакомит девушку с итальянским фотографом Диего. Между молодыми людьми начинается роман, который перерастает в глубокие чувства. Диего стал для Джеми любовью всей ее жизни, и через некоторое время она родила от него сына Пьетро. Спустя несколько лет, она вновь отправляется в Сараево, чтобы познакомить своего сына-подростка с городом, который очень многое значит в ее жизни. Именно этот город хранит в себе множество радостных и болезненных воспоминания Джеммы...



Выпущено: Италия, Испания / Medusa Film, Alien Produzioni, Mod Producciones
Продолжительность: 02:09:14
Озвучивание: Любительское (двухголосое)


Формат: MKV
Качество: BDRip 720p [EgL]
Видео: 5069 kb/s, 1280x688
Аудио: Russian: AC3, 192 kb/s (6 ch) / English / Italian: AC3, 448 kb/s (6 ch)
Субтитры: English, Italian

Скачать: Сэмпл

Релиз группы:



General
Twice.Born.2012.BDRip.720p.CINEMANIA.mkv
Format : Matroska
Format version : Version 4 / Version 2
File size : 5.55 GiB
Duration : 2h 9mn
Overall bit rate : 6 153 Kbps
Encoded date : UTC 2013-11-14 14:29:56
Writing application : mkvmerge v6.5.0 ('Isn't she lovely') built on Oct 20 2013 12:50:05
Writing library : libebml v1.3.0 + libmatroska v1.4.1

Video
ID : 1
Format : AVC
Format/Info : Advanced Video Codec
Format profile : High@L4.1
Format settings, CABAC : Yes
Format settings, ReFrames : 5 frames
Codec ID : V_MPEG4/ISO/AVC
Duration : 2h 9mn
Bit rate : 5 069 Kbps
Width : 1 280 pixels
Height : 688 pixels
Display aspect ratio : 1.85:1
Frame rate mode : Constant
Frame rate : 24.000 fps
Color space : YUV
Chroma subsampling : 4:2:0
Bit depth : 8 bits
Scan type : Progressive
Bits/(Pixel*Frame) : 0.240
Stream size : 4.46 GiB (80%)
Writing library : x264 core 133 r2334 a3ac64b
Encoding settings : cabac=1 / ref=5 / deblock=1:0:0 / analyse=0x3:0x133 / me=umh / subme=10 / psy=1 / psy_rd=1.00:0.15 / mixed_ref=1 / me_range=32 / chroma_me=1 / trellis=2 / 8x8dct=1 / cqm=0 / deadzone=21,11 / fast_pskip=0 / chroma_qp_offset=-3 / threads=6 / lookahead_threads=1 / sliced_threads=0 / nr=0 / decimate=1 / interlaced=0 / bluray_compat=0 / constrained_intra=0 / bframes=3 / b_pyramid=2 / b_adapt=2 / b_bias=0 / direct=3 / weightb=1 / open_gop=0 / weightp=2 / keyint=240 / keyint_min=24 / scenecut=40 / intra_refresh=0 / rc=2pass / mbtree=0 / bitrate=5069 / ratetol=2.0 / qcomp=0.60 / qpmin=10 / qpmax=51 / qpstep=4 / cplxblur=20.0 / qblur=0.5 / ip_ratio=1.40 / pb_ratio=1.00 / aq=1:1.00
Language : English
Default : No
Forced : No

Audio #1
ID : 2
Format : AC-3
Format/Info : Audio Coding 3
Mode extension : CM (complete main)
Format settings, Endianness : Big
Codec ID : A_AC3
Duration : 2h 9mn
Bit rate mode : Constant
Bit rate : 192 Kbps
Channel(s) : 2 channels
Channel positions : Front: L R
Sampling rate : 48.0 KHz
Bit depth : 16 bits
Compression mode : Lossy
Stream size : 177 MiB (3%)
Title : sweet couple
Language : Russian
Default : Yes
Forced : Yes

Audio #2
ID : 3
Format : AC-3
Format/Info : Audio Coding 3
Mode extension : CM (complete main)
Format settings, Endianness : Big
Codec ID : A_AC3
Duration : 2h 9mn
Bit rate mode : Constant
Bit rate : 448 Kbps
Channel(s) : 6 channels
Channel positions : Front: L C R, Side: L R, LFE
Sampling rate : 48.0 KHz
Bit depth : 16 bits
Compression mode : Lossy
Stream size : 414 MiB (7%)
Language : English
Default : No
Forced : No

Audio #3
ID : 4
Format : AC-3
Format/Info : Audio Coding 3
Mode extension : CM (complete main)
Format settings, Endianness : Big
Codec ID : A_AC3
Duration : 2h 9mn
Bit rate mode : Constant
Bit rate : 448 Kbps
Channel(s) : 6 channels
Channel positions : Front: L C R, Side: L R, LFE
Sampling rate : 48.0 KHz
Bit depth : 16 bits
Compression mode : Lossy
Stream size : 414 MiB (7%)
Language : Italian
Default : No
Forced : No

Text #1
ID : 5
Format : UTF-8
Codec ID : S_TEXT/UTF8
Codec ID/Info : UTF-8 Plain Text
Language : Italian
Default : No
Forced : No

Text #2
ID : 6
Format : UTF-8
Codec ID : S_TEXT/UTF8
Codec ID/Info : UTF-8 Plain Text
Language : English
Default : No
Forced : No

загрузка...
Правила, инструкции, FAQ!!!
Торрент  Добавлен [15 ноя 2013, 06:32] Скачать торрент
Скачать торрент
[ Размер 28.24 КБ / Просмотров 5 ]

Статус  
 
Размер  5.55 ГБ
Приватный: Нет (DHT включён)
.torrent скачан  0
Как залить торрент? | Как скачать Torrent? | Как смотреть и слушать онлайн?  


     Отправить личное сообщение
   
Страница 1 из 1
Показать сообщения за:  Поле сортировки  
Начать новую тему Ответить на тему

   Похожие торренты   Автор   Ответы   Просмотры   Последнее сообщение 
В этой теме нет новых непрочитанных сообщений. Скачать торрент Проверен (Prog Folk) Flor de Loto - Volver a nacer - 2012, FLAC (image+.cue), lossless

в форуме Progressive & Art-Rock, Размер: 488.86 МБ, Здоровье: 0%

Anonymous

0
0|0

1
0

30 авг 2016, 00:45

Anonymous Перейти к последнему сообщению

В этой теме нет новых непрочитанных сообщений. Скачать торрент Проверен Вилсон Фрэнсис Пол - Рожденный дважды [Кирсанов Сергей, 2013 г., 96 kbps, MP3]

в форуме Детектив и Боевики, Размер: 500.75 МБ, Здоровье: 0%

Anonymous

0
0|0

5
0

04 май 2016, 22:39

Anonymous Перейти к последнему сообщению

В этой теме нет новых непрочитанных сообщений. Скачать торрент Проверен Ламли Брайан - Рожденный от ветра (Born of the Winds) [vaska hulya, (ЛИ), 2015 г., 128 kbps, MP3]

в форуме Зарубежная фантастика, фэнтези, мистика, ужасы, Размер: 140.07 МБ, Здоровье: 0%

Anonymous

0
0|0

5
0

11 сен 2016, 10:43

Anonymous Перейти к последнему сообщению

В этой теме нет новых непрочитанных сообщений. Скачать торрент Рожденный сокрушать / Отчаянный мститель / Born to Raise Hell (Лауро Чартрэнд / Lauro Chartrand) [2010 г., Боевик, HDRip]

в форуме Боевики, Размер: 745.02 МБ, Здоровье: 100%

Anonymous

0
2|1

63
0

03 апр 2014, 12:43

Anonymous Перейти к последнему сообщению

В этой теме нет новых непрочитанных сообщений. Скачать торрент Мои африканские приключения / Min sosters born i Afrika (2013) BDRip 720p от CINEMANIA | НТВ+

в форуме 720p | 1080p, Размер: 4.01 ГБ, Здоровье: 100%

Anonymous

0
12|0

55
148

25 мар 2014, 07:28

Anonymous Перейти к последнему сообщению



Сейчас этот форум просматривают: нет зарегистрированных пользователей и гости: 3


Вы не можете начинать темы
Вы не можете отвечать на сообщения
Вы не можете редактировать свои сообщения
Вы не можете удалять свои сообщения
Вы не можете добавлять вложения

Перейти:  

!ВНИМАНИЕ!
 Ресурс не предоставляет электронные версии произведений, а занимается лишь коллекционированием и каталогизацией ссылок, присылаемых и публикуемых на форуме нашими читателями. Если вы являетесь правообладателем какого-либо представленного материала и не желаете чтобы ссылка на него находилась в нашем каталоге, свяжитесь с нами и мы незамедлительно удалим её. Файлы для обмена на трекере предоставлены пользователями сайта, и администрация не несёт ответственности за их содержание. Просьба не заливать файлы, защищенные авторскими правами, а также файлы нелегального содержания!