На всех торрентах на трекере установлена скидка на скачивание в размере 100 процентов(а).
 Возможность скачивания торрента НЕ зависит от ограничений при низком ратио, низком аплоаде, требуемом ратио или требуемом аплоаде.


Начать новую тему Ответить на тему
Статистика раздачи
Размер: 2.87 ГБ | Добавлен: 14 ноя 2013, 22:47 | Скачали: 0
Сидеров: 0  [0 байт/сек]    Личеров: 0  [0 байт/сек]
Пред. тема | След. тема 

Автор
Сообщение

СообщениеДобавлено: 14 ноя 2013, 22:47 

Название: Жизнь в мотеле
Оригинальное название: The Motel Life
Год выхода: 2012
Жанр: триллер, драма, детектив
Режиссер: Алан Польски, Гейб Польски

В ролях: Эмиль Хирш, Стивен Дорфф, Крис Кристофферсон, Дакота Фаннинг, Гаррет Бэкстром, Дженика Бергер, Кристиан Круз, Шаэ Д’Лин, Ной Харпстер, Эндрю Ли

О фильме:
Фильм рассказывает о нескольких неделях жизни двух парней из рабочего класса — братьев Фрэнка и Джерри Ли. Джерри Ли, находясь за рулем в нетрезвом состоянии, случайно сбивает насмерть велосипедиста, после чего братья скрываются от полиции. Неудача преследует героев еще с детства: мать умерла, когда они были подростками, а отец, выйдя из тюрьмы, так и не смог приспособиться к обычной жизни.


Выпущено: США
Продолжительность: 01:25:11
Озвучивание: Любительское (многоголосое) [DeadSno & den904] -
перевод на русский язык [Antonio]


Формат: MKV
Качество: WEB-DL 720p [CINEMANIA]
Видео: 3955 kb/s, 1280x528
Аудио: Russian / English: AC3, 384 kb/s (6 ch)
Субтитры: English
Дополнительно: Сохранены оригинальные чаптеры как на Blu-Ray

Скачать: Сэмпл

Релиз группы:



General The.Motel.Life.2012.WEB-DL.720p.CINEMANIA.mkv
Format : Matroska
Format version : Version 4 / Version 2
File size : 2.87 GiB
Duration : 1h 25mn
Overall bit rate : 4 819 Kbps
Movie name : CINEMANIA.CC
Encoded date : UTC 2013-11-14 13:21:11
Writing application : mkvmerge v6.5.0 ('Isn't she lovely') built on Oct 20 2013 12:50:05
Writing library : libebml v1.3.0 + libmatroska v1.4.1

Video
ID : 1
Format : AVC
Format/Info : Advanced Video Codec
Format profile : Main@L3.1
Format settings, CABAC : No
Format settings, ReFrames : 2 frames
Codec ID : V_MPEG4/ISO/AVC
Duration : 1h 25mn
Bit rate : 3 955 Kbps
Width : 1 280 pixels
Height : 528 pixels
Display aspect ratio : 2.40:1
Frame rate mode : Constant
Frame rate : 23.976 fps
Color space : YUV
Chroma subsampling : 4:2:0
Bit depth : 8 bits
Scan type : Progressive
Bits/(Pixel*Frame) : 0.244
Stream size : 2.35 GiB (82%)
Title : CINEMANIA.CC
Language : English
Default : Yes
Forced : No
Color primaries : BT.709
Transfer characteristics : BT.709
Matrix coefficients : BT.709

Audio #1
ID : 2
Format : AC-3
Format/Info : Audio Coding 3
Mode extension : CM (complete main)
Format settings, Endianness : Big
Codec ID : A_AC3
Duration : 1h 25mn
Bit rate mode : Constant
Bit rate : 384 Kbps
Channel(s) : 6 channels
Channel positions : Front: L C R, Side: L R, LFE
Sampling rate : 48.0 KHz
Bit depth : 16 bits
Compression mode : Lossy
Stream size : 234 MiB (8%)
Title : DeadSno & den904
Language : Russian
Default : Yes
Forced : Yes

Audio #2
ID : 3
Format : AC-3
Format/Info : Audio Coding 3
Mode extension : CM (complete main)
Format settings, Endianness : Big
Codec ID : A_AC3
Duration : 1h 25mn
Bit rate mode : Constant
Bit rate : 384 Kbps
Channel(s) : 6 channels
Channel positions : Front: L C R, Side: L R, LFE
Sampling rate : 48.0 KHz
Bit depth : 16 bits
Compression mode : Lossy
Stream size : 234 MiB (8%)
Language : English
Default : No
Forced : No

Text
ID : 4
Format : UTF-8
Codec ID : S_TEXT/UTF8
Codec ID/Info : UTF-8 Plain Text
Language : English
Default : No
Forced : No

Menu
00:00:00.000 : en:Chapter 1
00:09:44.000 : en:Chapter 2
00:19:22.000 : en:Chapter 3
00:29:19.000 : en:Chapter 4
00:40:12.000 : en:Chapter 5
00:51:30.000 : en:Chapter 6
01:02:33.000 : en:Chapter 7
01:14:53.000 : en:Chapter 8
01:20:10.000 : en:Chapter 9

загрузка...
Правила, инструкции, FAQ!!!
Торрент  Добавлен [14 ноя 2013, 22:47] Скачать торрент
Скачать торрент
[ Размер 14.83 КБ / Просмотров 3 ]

Статус  
 
Размер  2.87 ГБ
Приватный: Нет (DHT включён)
.torrent скачан  0
Как залить торрент? | Как скачать Torrent? | Как смотреть и слушать онлайн?  


     Отправить личное сообщение
   
Страница 1 из 1
Показать сообщения за:  Поле сортировки  
Начать новую тему Ответить на тему

   Похожие торренты   Автор   Ответы   Просмотры   Последнее сообщение 
В этой теме нет новых непрочитанных сообщений. Скачать торрент Мотель / Сумка / Комната 13 / Человек с сумкой / The Bag Man / Motel Room 13 / Motel (2014) BDRip 720p | L1

в форуме 720p | 1080p, Размер: 5.29 ГБ, Здоровье: 0%

Anonymous

0
0|0

58
0

09 мар 2014, 13:07

Anonymous Перейти к последнему сообщению

В этой теме нет новых непрочитанных сообщений. Скачать торрент Жизнь короля / Life of a King (2013) BDRip 720p | L1

в форуме 720p | 1080p, Размер: 5.25 ГБ, Здоровье: 0%

Anonymous

0
0|0

37
0

09 мар 2014, 08:58

Anonymous Перейти к последнему сообщению

В этой теме нет новых непрочитанных сообщений. Скачать торрент Проверен Жизнь дерьмо / Life Stinks (1991) BDRip 720p | P

в форуме 720p | 1080p, Размер: 3 ГБ, Здоровье: 100%

Гость

0
120|61

68
97

25 июл 2015, 22:22

Гость Перейти к последнему сообщению

В этой теме нет новых непрочитанных сообщений. Скачать торрент Проверен Водная жизнь / The Life Aquatic with Steve Zissou (2004) BDRip 720p | P

в форуме 720p | 1080p, Размер: 3.1 ГБ, Здоровье: 100%

Anonymous

0
11|0

23
303

12 июл 2014, 21:22

Anonymous Перейти к последнему сообщению

В этой теме нет новых непрочитанных сообщений. Скачать торрент Невероятная жизнь Уолтера Митти / The Secret Life of Walter Mitty (2013) WEB-DL 720p | Звук с TS

в форуме 720p | 1080p, Размер: 3.65 ГБ, Здоровье: 0%

Anonymous

0
0|0

49
0

18 мар 2014, 19:55

Anonymous Перейти к последнему сообщению



Сейчас этот форум просматривают: нет зарегистрированных пользователей и гости: 3


Вы не можете начинать темы
Вы не можете отвечать на сообщения
Вы не можете редактировать свои сообщения
Вы не можете удалять свои сообщения
Вы не можете добавлять вложения

Перейти:  

!ВНИМАНИЕ!
 Ресурс не предоставляет электронные версии произведений, а занимается лишь коллекционированием и каталогизацией ссылок, присылаемых и публикуемых на форуме нашими читателями. Если вы являетесь правообладателем какого-либо представленного материала и не желаете чтобы ссылка на него находилась в нашем каталоге, свяжитесь с нами и мы незамедлительно удалим её. Файлы для обмена на трекере предоставлены пользователями сайта, и администрация не несёт ответственности за их содержание. Просьба не заливать файлы, защищенные авторскими правами, а также файлы нелегального содержания!