На всех торрентах на трекере установлена скидка на скачивание в размере 100 процентов(а).
 Возможность скачивания торрента НЕ зависит от ограничений при низком ратио, низком аплоаде, требуемом ратио или требуемом аплоаде.


Начать новую тему Ответить на тему
Статистика раздачи
Размер: 4.15 ГБ | Добавлен: 12 ноя 2013, 19:21 | Скачали: 1
Сидеров: 0  [0 байт/сек]    Личеров: 0  [0 байт/сек]
Пред. тема | След. тема 

Автор
Сообщение

СообщениеДобавлено: 12 ноя 2013, 19:21 

Название: Паранойя
Оригинальное название: Paranoia
Год выхода: 2013
Жанр: триллер, драма
Режиссер: Роберт Лукетич

В ролях: Лиам Хемсворт, Гари Олдман, Эмбер Хёрд, Харрисон Форд, Лукас Тилл, Эмбет Дэвидц, Джулиан МакМэхон, Джош Холлоуэй, Ричард Дрейфусс, Анджела Сарафян

О фильме: Адам Кэссиди — типичный «белый воротничок», пытающийся преуспеть на должности молодого специалиста в крупной телекоммуникационной корпорации. После одной весьма дорогостоящей ошибки он сталкивается лицом к лицу с безжалостным президентом компании, который соглашается не увольнять провинившегося при одном условии: Адам должен шпионить за старым наставником своего босса…


Выпущено: США, Франция / Demarest Films, EMJAG Productions, Gaumont, IM Global, Kintop Pictures, Reliance Entertainment
Продолжительность: 01:46:06
Озвучивание: Любительское (одноголосое) [Doctor Joker] / Дублированное [звук с TS] (Примечание: Отсутствует ~4 мин. перевода.)

Формат: MKV
Качество: BDRip 720p
Видео: 4383 kb/s, 1280x536
Аудио: Russian [VO]: AC3, 448 kb/s (6 ch) / Russian [DUB]: MP3, 320 kb/s (2 ch)/ English: AC3, 448 kb/s (6 ch)
Субтитры: English
Дополнительно: Сохранены оригинальные чаптеры как на Blu-Ray

Семпл





Format : Matroska
Format version : Version 4 / Version 2
File size : 4.15 GiB
Duration : 1h 46mn
Overall bit rate : 5 598 Kbps
Movie name : Релиз Переулка Переводмана
Encoded date : UTC 2013-11-12 13:04:56
Writing application : mkvmerge v6.1.0 ('Old Devil') built on Mar 4 2013 09:10:42
Writing library : libebml v1.3.0 + libmatroska v1.4.0
Attachment : Paranoia_MartinaG_DJ_Poster.jpg

Video
ID : 1
Format : AVC
Format/Info : Advanced Video Codec
Format profile : High@L4.1
Format settings, CABAC : Yes
Format settings, ReFrames : 5 frames
Codec ID : V_MPEG4/ISO/AVC
Duration : 1h 46mn
Bit rate : 4 383 Kbps
Width : 1 280 pixels
Height : 536 pixels
Display aspect ratio : 2.40:1
Frame rate : 23.976 fps
Color space : YUV
Chroma subsampling : 4:2:0
Bit depth : 8 bits
Scan type : Progressive
Bits/(Pixel*Frame) : 0.266
Stream size : 3.17 GiB (76%)
Writing library : x264 core 140 r2377 1ca7bb9
Encoding settings : cabac=1 / ref=5 / deblock=1:0:0 / analyse=0x3:0x133 / me=umh / subme=7 / psy=1 / psy_rd=1.00:0.00 / mixed_ref=1 / me_range=16 / chroma_me=1 / trellis=1 / 8x8dct=1 / cqm=0 / deadzone=21,11 / fast_pskip=0 / chroma_qp_offset=-2 / threads=18 / lookahead_threads=3 / sliced_threads=0 / nr=0 / decimate=1 / interlaced=0 / bluray_compat=0 / constrained_intra=0 / bframes=3 / b_pyramid=2 / b_adapt=1 / b_bias=0 / direct=1 / weightb=1 / open_gop=0 / weightp=2 / keyint=250 / keyint_min=23 / scenecut=40 / intra_refresh=0 / rc_lookahead=40 / rc=2pass / mbtree=1 / bitrate=4383 / ratetol=1.0 / qcomp=0.60 / qpmin=0 / qpmax=69 / qpstep=4 / cplxblur=20.0 / qblur=0.5 / ip_ratio=1.40 / aq=1:1.00
Language : English
Default : Yes
Forced : No

Audio #1
ID : 2
Format : AC-3
Format/Info : Audio Coding 3
Mode extension : CM (complete main)
Format settings, Endianness : Big
Codec ID : A_AC3
Duration : 1h 46mn
Bit rate mode : Constant
Bit rate : 448 Kbps
Channel(s) : 6 channels
Channel positions : Front: L C R, Side: L R, LFE
Sampling rate : 48.0 KHz
Bit depth : 16 bits
Compression mode : Lossy
Stream size : 340 MiB (8%)
Title : VO Doctor_Joker | по переводу MartinaG
Language : Russian
Default : Yes
Forced : No

Audio #2
ID : 3
Format : MPEG Audio
Format version : Version 1
Format profile : Layer 3
Mode : Joint stereo
Codec ID : A_MPEG/L3
Codec ID/Hint : MP3
Duration : 1h 46mn
Bit rate mode : Constant
Bit rate : 320 Kbps
Channel(s) : 2 channels
Sampling rate : 48.0 KHz
Compression mode : Lossy
Stream size : 243 MiB (6%)
Language : Russian
Default : No
Forced : No

Audio #3
ID : 4
Format : AC-3
Format/Info : Audio Coding 3
Mode extension : CM (complete main)
Format settings, Endianness : Big
Codec ID : A_AC3
Duration : 1h 46mn
Bit rate mode : Constant
Bit rate : 448 Kbps
Channel(s) : 6 channels
Channel positions : Front: L C R, Side: L R, LFE
Sampling rate : 48.0 KHz
Bit depth : 16 bits
Compression mode : Lossy
Stream size : 340 MiB (8%)
Language : English
Default : No
Forced : No

Text
ID : 5
Format : UTF-8
Codec ID : S_TEXT/UTF8
Codec ID/Info : UTF-8 Plain Text
Language : English
Default : No
Forced : No

Menu
00:00:00.000 : en:00:00:00.000
00:06:54.205 : en:00:06:54.205
00:10:31.840 : en:00:10:31.840
00:14:12.602 : en:00:14:12.602
00:17:02.396 : en:00:17:02.396
00:21:41.008 : en:00:21:41.008
00:26:29.922 : en:00:26:29.922
00:31:31.848 : en:00:31:31.848
00:36:47.580 : en:00:36:47.580
00:39:37.500 : en:00:39:37.500
00:46:08.933 : en:00:46:08.933
00:49:15.327 : en:00:49:15.327
00:54:37.900 : en:00:54:37.900
00:57:30.238 : en:00:57:30.238
00:59:16.511 : en:00:59:16.511
01:04:02.547 : en:01:04:02.547
01:06:58.431 : en:01:06:58.431
01:10:14.961 : en:01:10:14.961
01:19:23.759 : en:01:19:23.759
01:23:21.079 : en:01:23:21.079
01:27:37.502 : en:01:27:37.502
01:35:06.618 : en:01:35:06.618
01:37:53.367 : en:01:37:53.367
01:40:59.053 : en:01:40:59.053
загрузка...
Правила, инструкции, FAQ!!!
Торрент  Добавлен [12 ноя 2013, 19:21] Скачать торрент
Скачать торрент
[ Размер 10.86 КБ / Просмотров 8 ]

Статус  
 
Размер  4.15 ГБ
Приватный: Нет (DHT включён)
.torrent скачан  1
Как залить торрент? | Как скачать Torrent? | Как смотреть и слушать онлайн?  


     Отправить личное сообщение
   
Страница 1 из 1
Показать сообщения за:  Поле сортировки  
Начать новую тему Ответить на тему

   Похожие торренты   Автор   Ответы   Просмотры   Последнее сообщение 
В этой теме нет новых непрочитанных сообщений. Скачать торрент Паранойя / Paranoia (2013) BDRip 1080p | Лицензия

в форуме 720p | 1080p, Размер: 9.02 ГБ, Здоровье: 100%

Anonymous

0
30|0

34
270

01 апр 2014, 23:18

Anonymous Перейти к последнему сообщению

В этой теме нет новых непрочитанных сообщений. Скачать торрент Проверен Паранойя / Disturbia (2007) BDRip 720p

в форуме 720p | 1080p, Размер: 5.81 ГБ, Здоровье: 100%

Гость

0
60|9

229
128

17 окт 2015, 18:28

Гость Перейти к последнему сообщению

В этой теме нет новых непрочитанных сообщений. Скачать торрент Проверен Паранойя / Disturbia (2007) BDRip-AVC

в форуме Триллеры, Размер: 3.37 ГБ, Здоровье: 100%

Гость

0
90|22

284
152

17 окт 2015, 18:27

Гость Перейти к последнему сообщению

В этой теме нет новых непрочитанных сообщений. Скачать торрент Проверен Паранойя / Disturbia (2007) BDRip 1080p

в форуме 720p | 1080p, Размер: 14.98 ГБ, Здоровье: 50%

Гость

0
2|4

222
0

17 окт 2015, 18:37

Гость Перейти к последнему сообщению

В этой теме нет новых непрочитанных сообщений. Скачать торрент Паранойя / Disturbia (2007) BDRip | Лицензия

в форуме Триллеры, Размер: 2.19 ГБ, Здоровье: 100%

Anonymous

0
7|1

217
10

06 янв 2014, 23:45

Anonymous Перейти к последнему сообщению



Сейчас этот форум просматривают: нет зарегистрированных пользователей и гости: 1


Вы не можете начинать темы
Вы не можете отвечать на сообщения
Вы не можете редактировать свои сообщения
Вы не можете удалять свои сообщения
Вы не можете добавлять вложения

Перейти:  

!ВНИМАНИЕ!
 Ресурс не предоставляет электронные версии произведений, а занимается лишь коллекционированием и каталогизацией ссылок, присылаемых и публикуемых на форуме нашими читателями. Если вы являетесь правообладателем какого-либо представленного материала и не желаете чтобы ссылка на него находилась в нашем каталоге, свяжитесь с нами и мы незамедлительно удалим её. Файлы для обмена на трекере предоставлены пользователями сайта, и администрация не несёт ответственности за их содержание. Просьба не заливать файлы, защищенные авторскими правами, а также файлы нелегального содержания!