На всех торрентах на трекере установлена скидка на скачивание в размере 100 процентов(а).
 Возможность скачивания торрента НЕ зависит от ограничений при низком ратио, низком аплоаде, требуемом ратио или требуемом аплоаде.


Начать новую тему Ответить на тему
Статистика раздачи
Размер: 3.91 ГБ | Добавлен: 12 ноя 2013, 11:38 | Скачали: 1
Сидеров: 2  [0 байт/сек]    Личеров: 2  [0 байт/сек]
Пред. тема | След. тема 

Автор
Сообщение

СообщениеДобавлено: 12 ноя 2013, 11:38 

Название: Мальчишник 2: Последнее искушение
Оригинальное название: Bachelor Party 2: The Last Temptation
Год выхода: 2008
Жанр: комедия
Режиссер: Джеймс Райан

В ролях: Джош Кук, Грег Питтс, Харланд Уильямс, Уоррен Кристи, Сара Фостер, Дэнни А. Джейкобс, Max Ландвирт, Эммануэль Вогье, Карен Гордон, Стивен Краули

О фильме:
Перед женитьбой герой фильма Рон отправляется с дружками в Майами, чтобы оторваться на полную катушку. В этой катушке — разгульное пьянство, шумные дебоши и, конечно, множество женщин…


Выпущено: США
Продолжительность: 01:43:37
Озвучивание:
Профессиональное (многоголосое)
Авторское (одноголосое) [А.Дольский]


Формат: MKV
Качество: WEB-DL 720p [CINEMANIA]
Видео: 3821 kb/s, 1280х720
Аудио:
Russian: [R5] / [А.Дольский]: AC3, 384 kb/s (6 ch)
English: AC3, 448 kb/s (6 ch) / Commentary: AC3, 192 kb/s (2 ch)
Субтитры: Russian [R5], English

Скачать: Сэмпл

Релиз группы:



General
CINEMANIABachelor.Party.2.2008.WEB-DL.720p.CINEMANIA.mkv
Format : Matroska
Format version : Version 4 / Version 2
File size : 3.91 GiB
Duration : 1h 43mn
Overall bit rate : 5 401 Kbps
Movie name : CINEMANIA.CC
Encoded date : UTC 2013-11-11 20:58:12
Writing application : mkvmerge v6.5.0 ('Isn't she lovely') built on Oct 20 2013 12:50:05
Writing library : libebml v1.3.0 + libmatroska v1.4.1

Video
ID : 1
Format : AVC
Format/Info : Advanced Video Codec
Format profile : High@L3.1
Format settings, CABAC : No
Format settings, ReFrames : 2 frames
Format settings, GOP : N=1
Codec ID : V_MPEG4/ISO/AVC
Duration : 1h 43mn
Bit rate : 3 821 Kbps
Width : 1 280 pixels
Height : 720 pixels
Display aspect ratio : 16:9
Frame rate mode : Constant
Frame rate : 23.976 fps
Color space : YUV
Chroma subsampling : 4:2:0
Bit depth : 8 bits
Scan type : Progressive
Bits/(Pixel*Frame) : 0.173
Stream size : 2.77 GiB (71%)
Title : CINEMANIA.CC
Language : English
Default : Yes
Forced : No
Color primaries : BT.709
Transfer characteristics : BT.709
Matrix coefficients : BT.709

Audio #1
ID : 2
Format : AC-3
Format/Info : Audio Coding 3
Mode extension : CM (complete main)
Format settings, Endianness : Big
Codec ID : A_AC3
Duration : 1h 43mn
Bit rate mode : Constant
Bit rate : 384 Kbps
Channel(s) : 6 channels
Channel positions : Front: L C R, Side: L R, LFE
Sampling rate : 48.0 KHz
Bit depth : 16 bits
Compression mode : Lossy
Stream size : 285 MiB (7%)
Title : Лицензия
Language : Russian
Default : Yes
Forced : Yes

Audio #2
ID : 3
Format : AC-3
Format/Info : Audio Coding 3
Mode extension : CM (complete main)
Format settings, Endianness : Big
Codec ID : A_AC3
Duration : 1h 43mn
Bit rate mode : Constant
Bit rate : 448 Kbps
Channel(s) : 6 channels
Channel positions : Front: L C R, Side: L R, LFE
Sampling rate : 48.0 KHz
Bit depth : 16 bits
Compression mode : Lossy
Stream size : 332 MiB (8%)
Title : А. Дольский
Language : Russian
Default : No
Forced : No

Audio #3
ID : 4
Format : AC-3
Format/Info : Audio Coding 3
Mode extension : CM (complete main)
Format settings, Endianness : Big
Codec ID : A_AC3
Duration : 1h 43mn
Bit rate mode : Constant
Bit rate : 448 Kbps
Channel(s) : 6 channels
Channel positions : Front: L C R, Side: L R, LFE
Sampling rate : 48.0 KHz
Bit depth : 16 bits
Compression mode : Lossy
Stream size : 332 MiB (8%)
Language : English
Default : No
Forced : No

Audio #4
ID : 5
Format : AC-3
Format/Info : Audio Coding 3
Mode extension : CM (complete main)
Format settings, Endianness : Big
Codec ID : A_AC3
Duration : 1h 43mn
Bit rate mode : Constant
Bit rate : 192 Kbps
Channel(s) : 2 channels
Channel positions : Front: L R
Sampling rate : 48.0 KHz
Bit depth : 16 bits
Compression mode : Lossy
Stream size : 142 MiB (4%)
Title : commentary
Language : English
Default : No
Forced : No

Text #1
ID : 6
Format : UTF-8
Codec ID : S_TEXT/UTF8
Codec ID/Info : UTF-8 Plain Text
Language : Russian
Default : No
Forced : No

Text #2
ID : 7
Format : UTF-8
Codec ID : S_TEXT/UTF8
Codec ID/Info : UTF-8 Plain Text
Language : English
Default : No
Forced : No

Menu
00:00:00.000 : en:A Good Team
00:06:20.000 : en:Bowling Night
00:08:21.000 : en:Engagement Party
00:14:20.000 : en:The Family Business
00:18:43.000 : en:Heading To South Beach
00:24:51.000 : en:Welcome To Florida
00:27:50.000 : en:SAA.
00:32:29.000 : en:Solid Gold
00:35:58.000 : en:Cleveland Fan
00:41:16.000 : en:The Next Morning
00:44:42.000 : en:Todd Rules
00:51:00.000 : en:For A Buck
00:52:49.000 : en:A Lifelong Mistake
00:56:50.000 : en:It's For Horses?
01:00:13.000 : en:Bachelorette Party
01:06:42.000 : en:Next Stop, Corner Office
01:10:34.000 : en:The Big Dance-Off
01:15:13.000 : en:Stuck
01:18:22.000 : en:Life Is Short
01:23:58.000 : en:A Really Good Guy
01:27:14.000 : en:Like Mother Teresa
01:29:45.000 : en:Not What You Think
01:33:06.000 : en:A Pretty Good Deal
01:37:38.000 : en:Small World/End Titles
загрузка...
Правила, инструкции, FAQ!!!
Торрент  Добавлен [12 ноя 2013, 11:38] Скачать торрент
Скачать торрент
[ Размер 20.02 КБ / Просмотров 15 ]

Статус  
 
Размер  3.91 ГБ
Приватный: Нет (DHT включён)
.torrent скачан  1
Как залить торрент? | Как скачать Torrent? | Как смотреть и слушать онлайн?  


     Отправить личное сообщение
   
Страница 1 из 1
Показать сообщения за:  Поле сортировки  
Начать новую тему Ответить на тему

   Похожие торренты   Автор   Ответы   Просмотры   Последнее сообщение 
В этой теме нет новых непрочитанных сообщений. Скачать торрент Проверен Мальчишник / Bachelor Party (1984) HDTVRip 720p

в форуме 720p | 1080p, Размер: 4.68 ГБ, Здоровье: 56%

Anonymous

0
13|23

39
15

02 сен 2014, 15:52

Anonymous Перейти к последнему сообщению

В этой теме нет новых непрочитанных сообщений. Скачать торрент Проверен [iPhone] Последнее искушение Христа / The Last Temptation Of Christ (Мартин Скорсезе) [1988, Философская притча, DVD9, 480х272]

в форуме Фильмы для iPod, iPhone, iPad, Размер: 937.38 МБ, Здоровье: 100%

Anonymous

0
1|0

15
0

11 май 2015, 01:37

Anonymous Перейти к последнему сообщению

В этой теме нет новых непрочитанных сообщений. Скачать торрент Проверен Мальчишник по-ирландски / The Stag / The Bachelor Weekend (2013) BDRip 720p | P

в форуме 720p | 1080p, Размер: 4.5 ГБ, Здоровье: 3%

Anonymous

0
2|63

38
0

16 ноя 2014, 01:42

Anonymous Перейти к последнему сообщению

В этой теме нет новых непрочитанных сообщений. Скачать торрент Проверен Никос Казандзакис - Последнее искушение Христа [1951, DOC]

в форуме Зарубежная литература (XX и XXI век), Размер: 10.44 МБ, Здоровье: 100%

Anonymous

0
7|2

3
0

08 сен 2016, 19:36

Anonymous Перейти к последнему сообщению

В этой теме нет новых непрочитанных сообщений. Скачать торрент Проверен Мелкоскоп. - Берлински Д. - Искушение астрологией, или Предсказание как искусство. [2008, PDF, RUS]

в форуме Астрология, Размер: 20.4 МБ, Здоровье: 0%

Anonymous

0
0|0

1
0

11 сен 2016, 23:43

Anonymous Перейти к последнему сообщению



Сейчас этот форум просматривают: нет зарегистрированных пользователей и гости: 1


Вы не можете начинать темы
Вы не можете отвечать на сообщения
Вы не можете редактировать свои сообщения
Вы не можете удалять свои сообщения
Вы не можете добавлять вложения

Перейти:  

!ВНИМАНИЕ!
 Ресурс не предоставляет электронные версии произведений, а занимается лишь коллекционированием и каталогизацией ссылок, присылаемых и публикуемых на форуме нашими читателями. Если вы являетесь правообладателем какого-либо представленного материала и не желаете чтобы ссылка на него находилась в нашем каталоге, свяжитесь с нами и мы незамедлительно удалим её. Файлы для обмена на трекере предоставлены пользователями сайта, и администрация не несёт ответственности за их содержание. Просьба не заливать файлы, защищенные авторскими правами, а также файлы нелегального содержания!