На всех торрентах на трекере установлена скидка на скачивание в размере 100 процентов(а).
 Возможность скачивания торрента НЕ зависит от ограничений при низком ратио, низком аплоаде, требуемом ратио или требуемом аплоаде.


Начать новую тему Ответить на тему
Статистика раздачи
Размер: 3.02 ГБ | Добавлен: 12 ноя 2013, 11:34 | Скачали: 0
Сидеров: 0  [0 байт/сек]    Личеров: 0  [0 байт/сек]
Пред. тема | След. тема 

Автор
Сообщение

СообщениеДобавлено: 12 ноя 2013, 11:34 

Название: Мальчишник в Лас-Вегасе
Оригинальное название: Bachelor Party Vegas
Год выхода: 2006
Жанр: Комедия
Режиссер: Эрик Бернт

В ролях: Кэл Пенн, Джонатан Беннетт, Дональд Фэйсон, Чарли Талберт, Аарон Химельштейн, Винсент Пасторе, Чак Лиделл, Мариса Петроро, Лин Шэй, Грэм Беккел

Описание:
Пятеро лучших друзей приехали в мировой центр разврата Лас-Вегас на мальчишник. Стриптизерша, встретившая их в лимузине, оказалась 70-летней старушкой, а организатор их мальчишника — грабителем банка. Уик-энд только начался!


Выпущено: США
Продолжительность: 01:30:26
Озвучивание: Профессиональное (многоголосое)


Формат: MKV
Качество: WEB-DL 720p [CINEMANIA]
Видео: 3787 kb/s, 1280x720
Аудио: Russian / English: AC3, 448 kb/s (6 ch)
Субтитры: English
Дополнительно: Сохранены оригинальные чаптеры как на Blu-Ray

Скачать: Сэмпл

Релиз группы:



General
Bachelor.Party.Vegas.2006.WEB-DL.720p.CINEMANIA.mkv
Format : Matroska
Format version : Version 4 / Version 2
File size : 3.02 GiB
Duration : 1h 30mn
Overall bit rate : 4 778 Kbps
Movie name : CINEMANIA.CC
Encoded date : UTC 2013-11-11 20:36:19
Writing application : mkvmerge v6.5.0 ('Isn't she lovely') built on Oct 20 2013 12:50:05
Writing library : libebml v1.3.0 + libmatroska v1.4.1

Video
ID : 1
Format : AVC
Format/Info : Advanced Video Codec
Format profile : High@L3.1
Format settings, CABAC : No
Format settings, ReFrames : 2 frames
Codec ID : V_MPEG4/ISO/AVC
Duration : 1h 30mn
Bit rate : 3 787 Kbps
Width : 1 280 pixels
Height : 720 pixels
Display aspect ratio : 16:9
Frame rate mode : Constant
Frame rate : 23.976 fps
Color space : YUV
Chroma subsampling : 4:2:0
Bit depth : 8 bits
Scan type : Progressive
Bits/(Pixel*Frame) : 0.171
Stream size : 2.39 GiB (79%)
Title : CINEMANIA.CC
Language : English
Default : Yes
Forced : No
Color primaries : BT.709
Transfer characteristics : BT.709
Matrix coefficients : BT.709

Audio #1
ID : 2
Format : AC-3
Format/Info : Audio Coding 3
Mode extension : CM (complete main)
Format settings, Endianness : Big
Codec ID : A_AC3
Duration : 1h 30mn
Bit rate mode : Constant
Bit rate : 448 Kbps
Channel(s) : 6 channels
Channel positions : Front: L C R, Side: L R, LFE
Sampling rate : 48.0 KHz
Bit depth : 16 bits
Compression mode : Lossy
Stream size : 290 MiB (9%)
Title : Лицензия
Language : Russian
Default : Yes
Forced : Yes

Audio #2
ID : 3
Format : AC-3
Format/Info : Audio Coding 3
Mode extension : CM (complete main)
Format settings, Endianness : Big
Codec ID : A_AC3
Duration : 1h 30mn
Bit rate mode : Constant
Bit rate : 448 Kbps
Channel(s) : 6 channels
Channel positions : Front: L C R, Side: L R, LFE
Sampling rate : 48.0 KHz
Bit depth : 16 bits
Compression mode : Lossy
Stream size : 290 MiB (9%)
Language : English
Default : No
Forced : No

Menu
00:00:00.000 : en:Start
00:07:56.000 : en:Shooting the Breeze
00:14:27.000 : en:Las Vegas Arrival
00:20:05.000 : en:Paintball Capers
00:28:45.000 : en:The Real Party Begins
00:41:57.000 : en:On the Run
00:48:38.000 : en:Porn Set Visit
00:53:25.000 : en:Confessions Among Friends
01:02:53.000 : en:$5,000,000 Found
01:09:04.000 : en:Police Interrogation
01:14:42.000 : en:The Truth
01:23:29.000 : en:Main Event

загрузка...
Правила, инструкции, FAQ!!!
Торрент  Добавлен [12 ноя 2013, 11:34] Скачать торрент
Скачать торрент
[ Размер 15.58 КБ / Просмотров 10 ]

Статус  
 
Размер  3.02 ГБ
Приватный: Нет (DHT включён)
.torrent скачан  0
Как залить торрент? | Как скачать Torrent? | Как смотреть и слушать онлайн?  


     Отправить личное сообщение
   
Страница 1 из 1
Показать сообщения за:  Поле сортировки  
Начать новую тему Ответить на тему

   Похожие торренты   Автор   Ответы   Просмотры   Последнее сообщение 
В этой теме нет новых непрочитанных сообщений. Скачать торрент Проверен Мальчишник / Bachelor Party (1984) HDTVRip 720p

в форуме 720p | 1080p, Размер: 4.68 ГБ, Здоровье: 56%

Anonymous

0
13|23

39
15

02 сен 2014, 15:52

Anonymous Перейти к последнему сообщению

В этой теме нет новых непрочитанных сообщений. Скачать торрент Проверен Мальчишник по-ирландски / The Stag / The Bachelor Weekend (2013) BDRip 720p | P

в форуме 720p | 1080p, Размер: 4.5 ГБ, Здоровье: 3%

Anonymous

0
2|63

38
0

16 ноя 2014, 01:42

Anonymous Перейти к последнему сообщению

В этой теме нет новых непрочитанных сообщений. Скачать торрент Проверен [iPad] Страх и ненависть в Лас-Вегасе / Fear and Loathing in Las Vegas (Терри Гиллиам / Terry Gilliam) [1998, комедия, драма, BDRip 720p]

в форуме Фильмы для iPod, iPhone, iPad, Размер: 3.18 ГБ, Здоровье: 100%

Гость

0
25|8

25
2

12 май 2015, 00:14

Гость Перейти к последнему сообщению

В этой теме нет новых непрочитанных сообщений. Скачать торрент Похмелье / Мальчишник в Вегасе / The Hangover (Тодд Филлипс / Todd Phillips) [2009 г., США, Комедия, HDRip] [UNRATED] AVO (Карповский)

в форуме Комедии, Размер: 1.46 ГБ, Здоровье: 100%

Anonymous

0
23|8

99
0

14 апр 2014, 09:26

Anonymous Перейти к последнему сообщению

В этой теме нет новых непрочитанных сообщений. Скачать торрент Проверен Страх и ненависть в Лас-Вегасе / Fear and Loathing in Las Vegas (1998) HDRip | P

в форуме Фантастика, Фэнтези, Размер: 1.45 ГБ, Здоровье: 100%

Anonymous

0
231|10

56
2699

12 авг 2014, 21:35

Anonymous Перейти к последнему сообщению



Сейчас этот форум просматривают: нет зарегистрированных пользователей и гости: 4


Вы не можете начинать темы
Вы не можете отвечать на сообщения
Вы не можете редактировать свои сообщения
Вы не можете удалять свои сообщения
Вы не можете добавлять вложения

Перейти:  

!ВНИМАНИЕ!
 Ресурс не предоставляет электронные версии произведений, а занимается лишь коллекционированием и каталогизацией ссылок, присылаемых и публикуемых на форуме нашими читателями. Если вы являетесь правообладателем какого-либо представленного материала и не желаете чтобы ссылка на него находилась в нашем каталоге, свяжитесь с нами и мы незамедлительно удалим её. Файлы для обмена на трекере предоставлены пользователями сайта, и администрация не несёт ответственности за их содержание. Просьба не заливать файлы, защищенные авторскими правами, а также файлы нелегального содержания!