На всех торрентах на трекере установлена скидка на скачивание в размере 100 процентов(а).
 Возможность скачивания торрента НЕ зависит от ограничений при низком ратио, низком аплоаде, требуемом ратио или требуемом аплоаде.


Начать новую тему Ответить на тему
Статистика раздачи
Размер: 4.68 ГБ | Добавлен: 11 ноя 2013, 22:50 | Скачали: 0
Сидеров: 0  [0 байт/сек]    Личеров: 0  [0 байт/сек]
Пред. тема | След. тема 

Автор
Сообщение

СообщениеДобавлено: 11 ноя 2013, 22:49 

Название: Юхан Фальк: Организация Караян
Оригинальное название: Johan Falk: Organizatsija Karayan
Год выхода: 2012
Жанр: боевик, триллер, криминал
Режиссер: Ричард Холм

В ролях: Якоб Эклунд, Юэль Киннаман, Hanna Alsterlund, Johan Hedenberg, Дженс Хультен, Мелиз Карлге

О фильме:
Шведская сага, повествующая о полицейском Фалке, работающим в отделе по борьбе с организованной преступностью, связанной с такими же организациями по всей Европе. Работа идет своим чередом, пока не похищают приемную дочь Фалька, в связи с чем начинается расследование, нити которого ведут к русской преступной группировке, занимающиейся торговлей наркотиками и отмывающей деньги через строительную компанию...


Выпущено: Швеция
Продолжительность: 01:41:09
Озвучивание: Любительское (одноголосое) [den904]


Формат: MKV
Качество: BDRip 720p [iMSORNY]
Видео: 4943 kb/s, 1280x720
Аудио: Russian: AC3, 448 kb/s (6 ch) / Swedish: DTS, 1510 kb/s (6 ch)
Субтитры: English

Скачать: Сэмпл

Релиз группы:



General
Organizatsija.Karayan.2012.BDRip.720p.CINEMANIA.mkv
Format : Matroska
Format version : Version 4 / Version 2
File size : 4.68 GiB
Duration : 1h 37mn
Overall bit rate : 6 901 Kbps
Movie name : CINEMANIA.CC
Encoded date : UTC 2013-11-11 16:05:58
Writing application : mkvmerge v6.5.0 ('Isn't she lovely') built on Oct 20 2013 12:50:05
Writing library : libebml v1.3.0 + libmatroska v1.4.1

Video
ID : 1
Format : AVC
Format/Info : Advanced Video Codec
Format profile : High@L3.1
Format settings, CABAC : Yes
Format settings, ReFrames : 5 frames
Codec ID : V_MPEG4/ISO/AVC
Duration : 1h 37mn
Bit rate : 4 943 Kbps
Width : 1 280 pixels
Height : 720 pixels
Display aspect ratio : 16:9
Frame rate mode : Constant
Frame rate : 25.000 fps
Color space : YUV
Chroma subsampling : 4:2:0
Bit depth : 8 bits
Scan type : Progressive
Bits/(Pixel*Frame) : 0.215
Stream size : 3.26 GiB (70%)
Title : CINEMANIA.CC
Writing library : x264 core 128 r2216 198a7ea
Encoding settings : cabac=1 / ref=5 / deblock=1:0:0 / analyse=0x3:0x133 / me=umh / subme=7 / psy=1 / psy_rd=1.00:0.00 / mixed_ref=1 / me_range=16 / chroma_me=1 / trellis=1 / 8x8dct=1 / cqm=0 / deadzone=21,11 / fast_pskip=0 / chroma_qp_offset=-2 / threads=12 / lookahead_threads=2 / sliced_threads=0 / nr=0 / decimate=1 / interlaced=0 / bluray_compat=0 / constrained_intra=0 / bframes=3 / b_pyramid=2 / b_adapt=2 / b_bias=0 / direct=3 / weightb=1 / open_gop=0 / weightp=2 / keyint=250 / keyint_min=25 / scenecut=40 / intra_refresh=0 / rc_lookahead=50 / rc=2pass / mbtree=1 / bitrate=4943 / ratetol=1.0 / qcomp=0.60 / qpmin=0 / qpmax=69 / qpstep=4 / cplxblur=20.0 / qblur=0.5 / ip_ratio=1.40 / aq=1:1.00
Language : English
Default : Yes
Forced : No

Audio #1
ID : 2
Format : AC-3
Format/Info : Audio Coding 3
Mode extension : CM (complete main)
Format settings, Endianness : Big
Codec ID : A_AC3
Duration : 1h 37mn
Bit rate mode : Constant
Bit rate : 448 Kbps
Channel(s) : 6 channels
Channel positions : Front: L C R, Side: L R, LFE
Sampling rate : 48.0 KHz
Bit depth : 16 bits
Compression mode : Lossy
Stream size : 311 MiB (6%)
Title : den904
Language : Russian
Default : Yes
Forced : Yes

Audio #2
ID : 3
Format : DTS
Format/Info : Digital Theater Systems
Mode : 16
Format settings, Endianness : Big
Codec ID : A_DTS
Duration : 1h 37mn
Bit rate mode : Constant
Bit rate : 1 509 Kbps
Channel(s) : 6 channels
Channel positions : Front: L C R, Side: L R, LFE
Sampling rate : 48.0 KHz
Bit depth : 24 bits
Compression mode : Lossy
Stream size : 1.02 GiB (22%)
Language : Swedish
Default : No
Forced : No

Text
ID : 4
Format : UTF-8
Codec ID : S_TEXT/UTF8
Codec ID/Info : UTF-8 Plain Text
Language : English
Default : No
Forced : No

загрузка...
Правила, инструкции, FAQ!!!
Торрент  Добавлен [11 ноя 2013, 22:50] Скачать торрент
Скачать торрент
[ Размер 23.9 КБ / Просмотров 11 ]

Статус  
 
Размер  4.68 ГБ
Приватный: Нет (DHT включён)
.torrent скачан  0
Как залить торрент? | Как скачать Torrent? | Как смотреть и слушать онлайн?  


     Отправить личное сообщение
   
Страница 1 из 1
Показать сообщения за:  Поле сортировки  
Начать новую тему Ответить на тему

   Похожие торренты   Автор   Ответы   Просмотры   Последнее сообщение 
В этой теме нет новых непрочитанных сообщений. Скачать торрент Иоанна / Joanna (Феликс Фальк / Feliks Falk) [2010, Польша, драма, история, военный, DVDRip]

в форуме Драмы, Мелодрамы, Размер: 1.36 ГБ, Здоровье: 100%

Anonymous

0
5|2

44
0

16 апр 2014, 07:47

Anonymous Перейти к последнему сообщению

В этой теме нет новых непрочитанных сообщений. Скачать торрент Проверен Юхан (Йохан) Теорин / Johan Theorin - Сборник книг [2009-2011, fb2 / pdf / rtf, Rus]

в форуме Зарубежная литература (XX и XXI век), Размер: 22.54 МБ, Здоровье: 100%

Anonymous

0
34|11

24
0

08 сен 2016, 20:14

Anonymous Перейти к последнему сообщению

В этой теме нет новых непрочитанных сообщений. Скачать торрент Проверен Юхан Борген / Johan Borgen - Сборник произведений [1979-1988, FB2/RTF/TXT/HTML/EPUB/PDF]

в форуме Зарубежная литература (XX и XXI век), Размер: 14.6 МБ, Здоровье: 0%

Anonymous

0
0|0

6
0

08 сен 2016, 19:27

Anonymous Перейти к последнему сообщению

В этой теме нет новых непрочитанных сообщений. Скачать торрент Проверен Юхан Теорин - Санкта-Психо [2015, FB2, RUS]

в форуме Детективы и Боевики, Размер: 1.35 МБ, Здоровье: 100%

Anonymous

0
16|5

30
1

09 сен 2016, 00:07

Anonymous Перейти к последнему сообщению

В этой теме нет новых непрочитанных сообщений. Скачать торрент Проверен Rammstein: Videos 1995-2012 [2012, Industrial , BDRip (720p)]

в форуме Концерты (HD-Video), Размер: 21.24 ГБ, Здоровье: 100%

Гость

0
56|37

753
11

26 апр 2015, 22:42

Гость Перейти к последнему сообщению



Сейчас этот форум просматривают: нет зарегистрированных пользователей и гости: 2


Вы не можете начинать темы
Вы не можете отвечать на сообщения
Вы не можете редактировать свои сообщения
Вы не можете удалять свои сообщения
Вы не можете добавлять вложения

Перейти:  

!ВНИМАНИЕ!
 Ресурс не предоставляет электронные версии произведений, а занимается лишь коллекционированием и каталогизацией ссылок, присылаемых и публикуемых на форуме нашими читателями. Если вы являетесь правообладателем какого-либо представленного материала и не желаете чтобы ссылка на него находилась в нашем каталоге, свяжитесь с нами и мы незамедлительно удалим её. Файлы для обмена на трекере предоставлены пользователями сайта, и администрация не несёт ответственности за их содержание. Просьба не заливать файлы, защищенные авторскими правами, а также файлы нелегального содержания!