На всех торрентах на трекере установлена скидка на скачивание в размере 100 процентов(а).
 Возможность скачивания торрента НЕ зависит от ограничений при низком ратио, низком аплоаде, требуемом ратио или требуемом аплоаде.


Начать новую тему Ответить на тему
Статистика раздачи
Размер: 7.91 ГБ | Добавлен: 11 ноя 2013, 22:39 | Скачали: 0
Сидеров: 0  [0 байт/сек]    Личеров: 0  [0 байт/сек]
Пред. тема | След. тема 

Автор
Сообщение

СообщениеДобавлено: 11 ноя 2013, 22:39 

Название: Быть Флинном
Оригинальное название: Being Flynn
Год выхода: 2012
Жанр: драма
Режиссер: Пол Вайц

В ролях: Роберт Де Ниро, Пол Дано, Оливия Тирлби, Лили Тейлор, Джулианна Мур, Эдди Роус, Стив Кирбус, Виктор Расук, Лайам Брогги, Крис Чок

О фильме:
Фильм рассказывает историю о двадцатилетнем парне, работающем в различных приютах для бездомных в Бостоне, где он часто пересекается со своим хоть и великолепным, но отчужденным и проблемным отцом.


Выпущено: США
Продолжительность: 01:41:44
Озвучивание: Профессиональное (многоголосое)
Любительское (многоголосое) [Alternative Production]


Формат: MKV
Качество: BDRip 720p [EbP]
Видео: 8982 kb/s, 1280x536
Аудио:
Russian: AC3, 192 kb/s (2 ch)
Russian: AC3, 448 kb/s (6 ch)
English: DTS, 1510 kb/s (6 ch)
Субтитры: English
Дополнительно: Сохранены оригинальные чаптеры как на Blu-Ray

Скачать: Сэмпл

Релиз группы:



General
Being.Flynn.2012.BDRip.720p.CINEMANIA.mkv
Format : Matroska
Format version : Version 4 / Version 2
File size : 7.91 GiB
Duration : 1h 41mn
Overall bit rate : 11.1 Mbps
Movie name : CINEMANIA.CC
Encoded date : UTC 2013-11-10 15:13:30
Writing application : mkvmerge v6.5.0 ('Isn't she lovely') built on Oct 20 2013 12:50:05
Writing library : libebml v1.3.0 + libmatroska v1.4.1

Video
ID : 1
Format : AVC
Format/Info : Advanced Video Codec
Format profile : High@L4.1
Format settings, CABAC : Yes
Format settings, ReFrames : 12 frames
Codec ID : V_MPEG4/ISO/AVC
Duration : 1h 41mn
Bit rate : 8 982 Kbps
Width : 1 280 pixels
Height : 536 pixels
Display aspect ratio : 2.40:1
Frame rate mode : Constant
Frame rate : 23.976 fps
Color space : YUV
Chroma subsampling : 4:2:0
Bit depth : 8 bits
Scan type : Progressive
Bits/(Pixel*Frame) : 0.546
Stream size : 6.22 GiB (79%)
Title : CINEMANIA.CC
Writing library : x264 core 125 r2200 999b753
Encoding settings : cabac=1 / ref=12 / deblock=1:-3:-3 / analyse=0x3:0x133 / me=umh / subme=9 / psy=1 / psy_rd=1.30:0.15 / mixed_ref=1 / me_range=16 / chroma_me=1 / trellis=2 / 8x8dct=1 / cqm=0 / deadzone=21,11 / fast_pskip=0 / chroma_qp_offset=-3 / threads=12 / lookahead_threads=2 / sliced_threads=0 / nr=0 / decimate=0 / interlaced=0 / bluray_compat=0 / constrained_intra=0 / bframes=8 / b_pyramid=2 / b_adapt=2 / b_bias=0 / direct=3 / weightb=1 / open_gop=0 / weightp=2 / keyint=250 / keyint_min=23 / scenecut=40 / intra_refresh=0 / rc=2pass / mbtree=0 / bitrate=8982 / ratetol=1.0 / qcomp=0.40 / qpmin=5 / qpmax=51 / qpstep=4 / cplxblur=20.0 / qblur=0.5 / ip_ratio=1.30 / pb_ratio=1.20 / aq=1:0.60
Language : English
Default : Yes
Forced : No
Matrix coefficients : BT.709

Audio #1
ID : 2
Format : AC-3
Format/Info : Audio Coding 3
Mode extension : CM (complete main)
Format settings, Endianness : Big
Codec ID : A_AC3
Duration : 1h 41mn
Bit rate mode : Constant
Bit rate : 192 Kbps
Channel(s) : 2 channels
Channel positions : Front: L R
Sampling rate : 48.0 KHz
Bit depth : 16 bits
Compression mode : Lossy
Stream size : 140 MiB (2%)
Title : online movies - IVI
Language : Russian
Default : Yes
Forced : Yes

Audio #2
ID : 3
Format : AC-3
Format/Info : Audio Coding 3
Mode extension : CM (complete main)
Format settings, Endianness : Big
Codec ID : A_AC3
Duration : 1h 41mn
Bit rate mode : Constant
Bit rate : 448 Kbps
Channel(s) : 6 channels
Channel positions : Front: L C R, Side: L R, LFE
Sampling rate : 48.0 KHz
Bit depth : 16 bits
Compression mode : Lossy
Stream size : 326 MiB (4%)
Title : Alternative Production
Language : Russian
Default : No
Forced : No

Audio #3
ID : 4
Format : DTS
Format/Info : Digital Theater Systems
Mode : 16
Format settings, Endianness : Big
Codec ID : A_DTS
Duration : 1h 41mn
Bit rate mode : Constant
Bit rate : 1 509 Kbps
Channel(s) : 6 channels
Channel positions : Front: L C R, Side: L R, LFE
Sampling rate : 48.0 KHz
Bit depth : 24 bits
Compression mode : Lossy
Stream size : 1.07 GiB (14%)
Language : English
Default : No
Forced : No

Text
ID : 5
Format : UTF-8
Codec ID : S_TEXT/UTF8
Codec ID/Info : UTF-8 Plain Text
Language : English
Default : No
Forced : No

Menu
00:00:00.000 : en:00:00:00.000
00:05:01.593 : en:00:05:01.593
00:10:23.832 : en:00:10:23.832
00:16:21.230 : en:00:16:21.230
00:20:10.584 : en:00:20:10.584
00:24:42.648 : en:00:24:42.648
00:29:52.290 : en:00:29:52.290
00:33:50.820 : en:00:33:50.820
00:38:40.235 : en:00:38:40.235
00:44:23.411 : en:00:44:23.411
00:50:10.090 : en:00:50:10.090
00:54:13.834 : en:00:54:13.834
00:58:45.981 : en:00:58:45.981
01:06:07.922 : en:01:06:07.922
01:11:44.300 : en:01:11:44.300
01:16:52.149 : en:01:16:52.149
01:22:15.597 : en:01:22:15.597
01:27:11.518 : en:01:27:11.518
01:30:19.331 : en:01:30:19.331
01:34:41.634 : en:01:34:41.634

загрузка...
Правила, инструкции, FAQ!!!
Торрент  Добавлен [11 ноя 2013, 22:39] Скачать торрент
Скачать торрент
[ Размер 40.02 КБ / Просмотров 6 ]

Статус  
 
Размер  7.91 ГБ
Приватный: Нет (DHT включён)
.torrent скачан  0
Как залить торрент? | Как скачать Torrent? | Как смотреть и слушать онлайн?  


     Отправить личное сообщение
   
Страница 1 из 1
Показать сообщения за:  Поле сортировки  
Начать новую тему Ответить на тему

   Похожие торренты   Автор   Ответы   Просмотры   Последнее сообщение 
В этой теме нет новых непрочитанных сообщений. Скачать торрент Проверен (Folk-Rock) [LP] [16/44.1] Johnny Flynn - A Film Score Of A Bag Of Hammers - 2012, FLAC (tracks)

в форуме Зарубежный рок (оцифровки), Размер: 152.5 МБ, Здоровье: 0%

Anonymous

0
0|0

0
0

25 авг 2016, 10:10

Anonymous Перейти к последнему сообщению

В этой теме нет новых непрочитанных сообщений. Скачать торрент Проверен Гиллиан (Джиллиан) Флинн / Gillian Flynn - Собрание сочинений (3 книги) [2012-2013, fb2, rtf]

в форуме Детективы и Боевики, Размер: 7.35 МБ, Здоровье: 100%

Anonymous

0
34|11

5
0

09 сен 2016, 00:06

Anonymous Перейти к последнему сообщению

В этой теме нет новых непрочитанных сообщений. Скачать торрент Проверен Rammstein: Videos 1995-2012 [2012, Industrial , BDRip (720p)]

в форуме Концерты (HD-Video), Размер: 21.24 ГБ, Здоровье: 100%

Гость

0
57|37

791
11

26 апр 2015, 22:42

Гость Перейти к последнему сообщению

В этой теме нет новых непрочитанных сообщений. Скачать торрент Проверен [iPad] 2012 / 2012 (Роланд Эммерих / Roland Emmerich) [2009, фантастика, боевик, приключения, BDRip, 720p]

в форуме Фильмы для iPod, iPhone, iPad, Размер: 4.31 ГБ, Здоровье: 100%

Гость

0
5|1

31
0

11 май 2015, 01:37

Гость Перейти к последнему сообщению

В этой теме нет новых непрочитанных сообщений. Скачать торрент Рассказы (2012) BDRip 720p

в форуме 720p | 1080p, Размер: 2.91 ГБ, Здоровье: 100%

Anonymous

0
46|0

22
10

20 фев 2014, 22:29

Anonymous Перейти к последнему сообщению



Сейчас этот форум просматривают: нет зарегистрированных пользователей и гости: 1


Вы не можете начинать темы
Вы не можете отвечать на сообщения
Вы не можете редактировать свои сообщения
Вы не можете удалять свои сообщения
Вы не можете добавлять вложения

Перейти:  

!ВНИМАНИЕ!
 Ресурс не предоставляет электронные версии произведений, а занимается лишь коллекционированием и каталогизацией ссылок, присылаемых и публикуемых на форуме нашими читателями. Если вы являетесь правообладателем какого-либо представленного материала и не желаете чтобы ссылка на него находилась в нашем каталоге, свяжитесь с нами и мы незамедлительно удалим её. Файлы для обмена на трекере предоставлены пользователями сайта, и администрация не несёт ответственности за их содержание. Просьба не заливать файлы, защищенные авторскими правами, а также файлы нелегального содержания!