На всех торрентах на трекере установлена скидка на скачивание в размере 100 процентов(а).
 Возможность скачивания торрента НЕ зависит от ограничений при низком ратио, низком аплоаде, требуемом ратио или требуемом аплоаде.


Начать новую тему Ответить на тему
Статистика раздачи
Размер: 5.81 ГБ | Добавлен: 11 ноя 2013, 22:34 | Скачали: 0
Сидеров: 0  [0 байт/сек]    Личеров: 0  [0 байт/сек]
Пред. тема | След. тема 

Автор
Сообщение

СообщениеДобавлено: 11 ноя 2013, 22:34 

Название: Гипнотизер
Оригинальное название: The hypnotist
Год выхода: 2012
Жанр: триллер, драма, криминал
Режиссер: Лассе Халльстрём

В ролях: Тобиаш Зиллиакус, Микаэл Персбрандт, Лена Улин, Хелена аф Сандеберг, Оскар Петтерссон, Анна Азкарате, Йонатан Бёкман, Ян Вальдекранц, Ева Меландер, Горан Торелл

О фильме:
В пригороде Стокгольма в раздевалке спортивного клуба найден зверски убитый мужчина. Позже в его доме обнаруживают зарубленных с чудовищной жестокостью жену и маленькую дочь. Похоже, убийца задался целью вырезать всю семью, однако тяжело раненный сын выжил. Комиссар уголовной полиции Йона Линна узнает, что в живых остался еще один член семьи — старшая сестра мальчика. Он понимает: необходимо найти девушку до того, как это сделает убийца. Чтобы поскорее допросить единственного свидетеля, Иона Линна связывается с врачом Эриком Марией Барком и убеждает его загипнотизировать мальчика. Только так можно получить описание преступника. Эрик нарушает свое давнее обещание отказаться от занятий гипнозом. И цепочка невероятных событий начинает неумолимо разматываться…



Выпущено: Швеция
Продолжительность: 02:01:22
Озвучивание: Профессиональное (многоголосное) / Любительское (одноголосое) [den904]


Формат: MKV
Качество: BDRip 720p [CHD]
Видео: 3637 kb/s, 1280x536
Аудио:
Russian: AC3, 192 kb/s (2 ch)
Russian: DTS, 1510 kb/s (6 ch)
Swedish: DTS, 1510 kb/s (6 ch)
Субтитры: English

Скачать: Сэмпл

Релиз группы:



General
The.Hypnotist.2012.BDRip.720p.CINEMANIA.mkv
Format : Matroska
Format version : Version 4 / Version 2
File size : 5.81 GiB
Duration : 2h 1mn
Overall bit rate : 6 850 Kbps
Movie name : CINEMANIA.CC
Encoded date : UTC 2013-11-10 09:02:34
Writing application : mkvmerge v6.5.0 ('Isn't she lovely') built on Oct 20 2013 12:50:05
Writing library : libebml v1.3.0 + libmatroska v1.4.1

Video
ID : 1
Format : AVC
Format/Info : Advanced Video Codec
Format profile : High@L4.1
Format settings, CABAC : Yes
Format settings, ReFrames : 12 frames
Codec ID : V_MPEG4/ISO/AVC
Duration : 2h 1mn
Bit rate : 3 637 Kbps
Width : 1 280 pixels
Height : 536 pixels
Display aspect ratio : 2.40:1
Frame rate mode : Constant
Frame rate : 24.000 fps
Color space : YUV
Chroma subsampling : 4:2:0
Bit depth : 8 bits
Scan type : Progressive
Bits/(Pixel*Frame) : 0.221
Stream size : 2.97 GiB (51%)
Title : CINEMANIA.CC
Writing library : x264 core 128 r2216 198a7ea
Encoding settings : cabac=1 / ref=12 / deblock=1:-3:-3 / analyse=0x3:0x113 / me=umh / subme=10 / psy=1 / psy_rd=1.10:0.15 / mixed_ref=1 / me_range=32 / chroma_me=1 / trellis=2 / 8x8dct=1 / cqm=0 / deadzone=21,11 / fast_pskip=0 / chroma_qp_offset=-2 / threads=12 / lookahead_threads=2 / sliced_threads=0 / nr=0 / decimate=1 / interlaced=0 / bluray_compat=0 / constrained_intra=0 / bframes=6 / b_pyramid=2 / b_adapt=2 / b_bias=0 / direct=3 / weightb=1 / open_gop=0 / weightp=2 / keyint=250 / keyint_min=24 / scenecut=40 / intra_refresh=0 / rc_lookahead=40 / rc=2pass / mbtree=0 / bitrate=3637 / ratetol=1.0 / qcomp=0.60 / qpmin=0 / qpmax=69 / qpstep=4 / cplxblur=20.0 / qblur=0.5 / vbv_maxrate=40000 / vbv_bufsize=30000 / nal_hrd=none / ip_ratio=1.40 / pb_ratio=1.30 / aq=1:0.80
Language : English
Default : Yes
Forced : No

Audio #1
ID : 2
Format : AC-3
Format/Info : Audio Coding 3
Mode extension : CM (complete main)
Format settings, Endianness : Big
Codec ID : A_AC3
Duration : 2h 1mn
Bit rate mode : Constant
Bit rate : 192 Kbps
Channel(s) : 2 channels
Channel positions : Front: L R
Sampling rate : 48.0 KHz
Bit depth : 16 bits
Compression mode : Lossy
Stream size : 167 MiB (3%)
Title : online movies
Language : Russian
Default : Yes
Forced : Yes

Audio #2
ID : 3
Format : DTS
Format/Info : Digital Theater Systems
Mode : 16
Format settings, Endianness : Big
Codec ID : A_DTS
Duration : 2h 1mn
Bit rate mode : Constant
Bit rate : 1 510 Kbps
Channel(s) : 6 channels
Channel positions : Front: L C R, Side: L R, LFE
Sampling rate : 48.0 KHz
Bit depth : 24 bits
Compression mode : Lossy
Stream size : 1.28 GiB (22%)
Title : den904
Language : Russian
Default : No
Forced : No

Audio #3
ID : 4
Format : DTS
Format/Info : Digital Theater Systems
Mode : 16
Format settings, Endianness : Big
Codec ID : A_DTS
Duration : 2h 1mn
Bit rate mode : Constant
Bit rate : 1 509 Kbps
Channel(s) : 6 channels
Channel positions : Front: L C R, Side: L R, LFE
Sampling rate : 48.0 KHz
Bit depth : 24 bits
Compression mode : Lossy
Stream size : 1.28 GiB (22%)
Language : Swedish
Default : No
Forced : No

Text
ID : 5
Format : UTF-8
Codec ID : S_TEXT/UTF8
Codec ID/Info : UTF-8 Plain Text
Language : English
Default : No
Forced : No
загрузка...
Правила, инструкции, FAQ!!!
Торрент  Добавлен [11 ноя 2013, 22:34] Скачать торрент
Скачать торрент
[ Размер 29.51 КБ / Просмотров 7 ]

Статус  
 
Размер  5.81 ГБ
Приватный: Нет (DHT включён)
.torrent скачан  0
Как залить торрент? | Как скачать Torrent? | Как смотреть и слушать онлайн?  


     Отправить личное сообщение
   
Страница 1 из 1
Показать сообщения за:  Поле сортировки  
Начать новую тему Ответить на тему

   Похожие торренты   Автор   Ответы   Просмотры   Последнее сообщение 
В этой теме нет новых непрочитанных сообщений. Скачать торрент Проверен Ольга Баскова | Гипнотизер для темных дел [2012] [RTF,FB2]

в форуме Детективы и Боевики, Размер: 5.62 МБ, Здоровье: 100%

Anonymous

0
2|1

18
0

20 сен 2014, 21:24

Anonymous Перейти к последнему сообщению

В этой теме нет новых непрочитанных сообщений. Скачать торрент Проверен Кеплер Ларс - Гипнотизер [Броцкая Леонтина, 2012, 96 kbps, MP3]

в форуме Детектив и Боевики, Размер: 820.43 МБ, Здоровье: 0%

Anonymous

0
0|0

0
0

20 ноя 2016, 10:34

Anonymous Перейти к последнему сообщению

В этой теме нет новых непрочитанных сообщений. Скачать торрент Проверен Кеплер Ларс - Гипнотизёр [Броцкая Леонтина, 2012 г., 128 kbps, MP3]

в форуме Детектив и Боевики, Размер: 1.07 ГБ, Здоровье: 0%

Anonymous

0
0|0

21
0

04 май 2016, 22:44

Anonymous Перейти к последнему сообщению

В этой теме нет новых непрочитанных сообщений. Скачать торрент Проверен (Alternative|Stoner|Rock) Hypnotist - 101 [2011], MP3, 320 kbps

в форуме Русский Рок, Размер: 29.4 МБ, Здоровье: 0%

Anonymous

0
0|0

2
0

21 авг 2016, 14:26

Anonymous Перейти к последнему сообщению

В этой теме нет новых непрочитанных сообщений. Скачать торрент Проверен Rammstein: Videos 1995-2012 [2012, Industrial , BDRip (720p)]

в форуме Концерты (HD-Video), Размер: 21.24 ГБ, Здоровье: 100%

Гость

0
56|37

764
11

26 апр 2015, 22:42

Гость Перейти к последнему сообщению



Сейчас этот форум просматривают: нет зарегистрированных пользователей и гости: 1


Вы не можете начинать темы
Вы не можете отвечать на сообщения
Вы не можете редактировать свои сообщения
Вы не можете удалять свои сообщения
Вы не можете добавлять вложения

Перейти:  

!ВНИМАНИЕ!
 Ресурс не предоставляет электронные версии произведений, а занимается лишь коллекционированием и каталогизацией ссылок, присылаемых и публикуемых на форуме нашими читателями. Если вы являетесь правообладателем какого-либо представленного материала и не желаете чтобы ссылка на него находилась в нашем каталоге, свяжитесь с нами и мы незамедлительно удалим её. Файлы для обмена на трекере предоставлены пользователями сайта, и администрация не несёт ответственности за их содержание. Просьба не заливать файлы, защищенные авторскими правами, а также файлы нелегального содержания!