На всех торрентах на трекере установлена скидка на скачивание в размере 100 процентов(а).
 Возможность скачивания торрента НЕ зависит от ограничений при низком ратио, низком аплоаде, требуемом ратио или требуемом аплоаде.


Начать новую тему Ответить на тему
Статистика раздачи
Размер: 4.37 ГБ | Добавлен: 11 ноя 2013, 21:13 | Скачали: 21
Сидеров: 16  [0 байт/сек]    Личеров: 12  [0 байт/сек]
Пред. тема | След. тема 

Автор
Сообщение

СообщениеДобавлено: 11 ноя 2013, 21:13 

Информация о фильме
Русское название: Красавчик Джонни
Оригинальное название: Johnny Handsome
Год выхода: 1989
Жанр: Криминальная драма
Режиссер: Уолтер Хилл
Выпущено: Канада, Caramel Film
Продолжительность: 01:33:16
В ролях: Микки Рурк, Морган Фримен, Форест Уитакер, Эллен Баркин, Элизабет МакГоверн, Лэнс Хенриксен, Ивонн Брайслэнд, Дэвид Шрамм, Скотт Уилсон

Перевод: Профессиональный многоголосый, авторский



Сюжет фильма

Джон Седли родился с обезображенным лицом, и это вкупе с тяжелым детством предопределило его судьбу — он стал преступником. Во время вооруженного ограбления он и его друг Майки оказались обманутым партнерами. Майки был убит, а Джони пошел в тюрьму, но никого не заложил, рассчитывая выйти на свободу и отомстить. В тюрьме он при помощи гуманного чернокожего хирурга получает новое, очень даже симпатичное и обаятельное лицо Микки Рурка, и со временем его отпускают по амнистии. Он начинает опасную игру, чтобы поквитаться с предателями.



Файл
Качество: BDRip 720p (исходник Blu-ray)
Видео: 1280x692, ~5 148 Кбит/сек, 23,976 кадр/сек, AVC, x264, High@L4.1, 0.317 Бит/[Пиксели*Кадры], 2pass
Аудио 1: AC-3, 448 Кбит/сек, 6 канала(ов), 48,0 КГц -Профессиональный (многоголосый, закадровый) R5
Аудио 2: AC-3, 448 Кбит/сек, 6 канала(ов), 48,0 КГц -Авторский одноголосый закадровый (А. Гаврилов)
Аудио 3: AC-3, 448 Кбит/сек, 6 канала(ов), 48,0 КГц -Авторский одноголосый закадровый (В. Горчаков)
Аудио 4: AC-3, 448 Кбит/сек, 6 канала(ов), 48,0 КГц -English

Чаптеры: есть
Субтитры: Русские



Автор Рипа:








Format : Matroska
Format version : Version 2
File size : 4.37 GiB
Duration : 1h 33mn
Overall bit rate : 6 682 Kbps
Movie name : Красавчик Джонни.(1989).BDRip.720p.[denis100]
Encoded date : UTC 2013-11-11 14:09:57
Writing application : mkvmerge v5.8.0 ('No Sleep / Pillow') built on Sep 2 2012 15:37:04
Writing library : libebml v1.2.3 + libmatroska v1.3.0

Video
ID : 1
Format : AVC
Format/Info : Advanced Video Codec
Format profile : High@L4.1
Format settings, CABAC : Yes
Format settings, ReFrames : 9 frames
Codec ID : V_MPEG4/ISO/AVC
Duration : 1h 33mn
Bit rate : 5 148 Kbps
Width : 1 280 pixels
Height : 692 pixels
Display aspect ratio : 1.85:1
Frame rate mode : Constant
Frame rate : 23.976 fps
Color space : YUV
Chroma subsampling : 4:2:0
Bit depth : 8 bits
Scan type : Progressive
Bits/(Pixel*Frame) : 0.242
Stream size : 3.28 GiB (75%)
Title : Красавчик Джонни.(1989).BDRip.720p.[denis100]
Writing library : x264 core 140 r2377 1ca7bb9
Encoding settings : cabac=1 / ref=9 / deblock=1:0:0 / analyse=0x3:0x133 / me=umh / subme=11 / psy=1 / psy_rd=1.00:0.10 / mixed_ref=1 / me_range=32 / chroma_me=1 / trellis=2 / 8x8dct=1 / cqm=0 / deadzone=21,11 / fast_pskip=0 / chroma_qp_offset=-3 / threads=6 / lookahead_threads=1 / sliced_threads=0 / nr=0 / decimate=0 / interlaced=0 / bluray_compat=0 / constrained_intra=0 / bframes=7 / b_pyramid=2 / b_adapt=2 / b_bias=0 / direct=3 / weightb=1 / open_gop=0 / weightp=2 / keyint=240 / keyint_min=23 / scenecut=40 / intra_refresh=0 / rc=2pass / mbtree=0 / bitrate=5148 / ratetol=1.0 / qcomp=0.60 / qpmin=0 / qpmax=69 / qpstep=4 / cplxblur=20.0 / qblur=0.5 / ip_ratio=1.40 / pb_ratio=1.30 / aq=1:0.90
Language : English
Default : Yes
Forced : No

Audio #1
ID : 2
Format : AC-3
Format/Info : Audio Coding 3
Mode extension : CM (complete main)
Format settings, Endianness : Big
Codec ID : A_AC3
Duration : 1h 33mn
Bit rate mode : Constant
Bit rate : 448 Kbps
Channel count : 6 channels
Channel positions : Front: L C R, Side: L R, LFE
Sampling rate : 48.0 KHz
Bit depth : 16 bits
Compression mode : Lossy
Stream size : 300 MiB (7%)
Title : Профессиональный (многоголосый, закадровый) R5
Language : Russian
Default : Yes
Forced : No

Audio #2
ID : 3
Format : AC-3
Format/Info : Audio Coding 3
Mode extension : CM (complete main)
Format settings, Endianness : Big
Codec ID : A_AC3
Duration : 1h 33mn
Bit rate mode : Constant
Bit rate : 448 Kbps
Channel count : 2 channels
Channel positions : Front: L R
Sampling rate : 48.0 KHz
Bit depth : 16 bits
Compression mode : Lossy
Stream size : 300 MiB (7%)
Title : Авторский одноголосый закадровый (А. Гаврилов)
Language : Russian
Default : No
Forced : No

Audio #3
ID : 4
Format : AC-3
Format/Info : Audio Coding 3
Mode extension : CM (complete main)
Format settings, Endianness : Big
Codec ID : A_AC3
Duration : 1h 33mn
Bit rate mode : Constant
Bit rate : 192 Kbps
Channel count : 2 channels
Channel positions : Front: L R
Sampling rate : 48.0 KHz
Bit depth : 16 bits
Compression mode : Lossy
Stream size : 129 MiB (3%)
Title : Авторский одноголосый закадровый (В. Горчаков)
Language : Russian
Default : No
Forced : No

Audio #4
ID : 5
Format : AC-3
Format/Info : Audio Coding 3
Mode extension : CM (complete main)
Format settings, Endianness : Big
Codec ID : A_AC3
Duration : 1h 33mn
Bit rate mode : Constant
Bit rate : 448 Kbps
Channel count : 2 channels
Channel positions : Front: L R
Sampling rate : 48.0 KHz
Bit depth : 16 bits
Compression mode : Lossy
Stream size : 300 MiB (7%)
Title : English
Language : English
Default : No
Forced : No

Text
ID : 6
Format : UTF-8
Codec ID : S_TEXT/UTF8
Codec ID/Info : UTF-8 Plain Text
Title : Русские
Language : Russian
Default : No
Forced : No

Menu
00:00:00.000 : en:Chapter 01
00:06:19.754 : en:Chapter 02
00:10:28.627 : en:Chapter 03
00:17:59.869 : en:Chapter 04
00:24:44.523 : en:Chapter 05
00:30:59.274 : en:Chapter 06
00:36:24.431 : en:Chapter 07
00:43:25.853 : en:Chapter 08
00:49:10.781 : en:Chapter 09
00:53:03.555 : en:Chapter 10
00:58:31.758 : en:Chapter 11
01:05:23.920 : en:Chapter 12
01:12:57.831 : en:Chapter 13
01:17:49.414 : en:Chapter 14
01:21:28.341 : en:Chapter 15
01:27:28.910 : en:Chapter 16
01:33:37.194 : en:Chapter 17
загрузка...
Правила, инструкции, FAQ!!!
Торрент  Добавлен [11 ноя 2013, 21:13] Скачать торрент
Скачать торрент
[ Размер 22.29 КБ / Просмотров 11 ]

Статус  
 
Размер  4.37 ГБ
Приватный: Нет (DHT включён)
.torrent скачан  21
Как залить торрент? | Как скачать Torrent? | Как смотреть и слушать онлайн?  


     Отправить личное сообщение
   
Страница 1 из 1
Показать сообщения за:  Поле сортировки  
Начать новую тему Ответить на тему

   Похожие торренты   Автор   Ответы   Просмотры   Последнее сообщение 
В этой теме нет новых непрочитанных сообщений. Скачать торрент Проверен Красавчик Джонни / Johnny Handsome (1989) BDRip

в форуме Триллеры, Размер: 1.45 ГБ, Здоровье: 100%

Anonymous

0
11|10

66
21

19 окт 2014, 14:51

Anonymous Перейти к последнему сообщению

В этой теме нет новых непрочитанных сообщений. Скачать торрент Проверен [iPad] Агент Джонни Инглиш: Перезагрузка / Johnny English Reborn (Оливер Паркер / Oliver Parker) [2011, боевик, комедия, приключения, BDRip 720p]

в форуме Фильмы для iPod, iPhone, iPad, Размер: 2.22 ГБ, Здоровье: 100%

Гость

0
11|4

61
0

12 май 2015, 00:07

Гость Перейти к последнему сообщению

В этой теме нет новых непрочитанных сообщений. Скачать торрент Фрэнки и Джонни / Frankie and Johnny (1991) HDTVRip-AVC 720p

в форуме 720p | 1080p, Размер: 4.38 ГБ, Здоровье: 0%

Anonymous

0
0|0

57
0

18 фев 2014, 21:56

Anonymous Перейти к последнему сообщению

В этой теме нет новых непрочитанных сообщений. Скачать торрент Проверен Джонни Мнемоник / Johnny Mnemonic (1995) BDRip | P

в форуме Фантастика, Фэнтези, Размер: 1.46 ГБ, Здоровье: 100%

Гость

0
37|14

143
12

21 фев 2016, 13:55

Гость Перейти к последнему сообщению

В этой теме нет новых непрочитанных сообщений. Скачать торрент Проверен Trumbo, Dalton / Трамбо, Дальтон (Далтон, Долтон) - Johnny Got His Gun / Джонни получил винтовку [1989, PDF, RUS]

в форуме Зарубежная литература (XX и XXI век), Размер: 1.3 МБ, Здоровье: 0%

Anonymous

0
0|0

0
0

08 сен 2016, 19:13

Anonymous Перейти к последнему сообщению



Сейчас этот форум просматривают: нет зарегистрированных пользователей и гости: 1


Вы не можете начинать темы
Вы не можете отвечать на сообщения
Вы не можете редактировать свои сообщения
Вы не можете удалять свои сообщения
Вы не можете добавлять вложения

Перейти:  

!ВНИМАНИЕ!
 Ресурс не предоставляет электронные версии произведений, а занимается лишь коллекционированием и каталогизацией ссылок, присылаемых и публикуемых на форуме нашими читателями. Если вы являетесь правообладателем какого-либо представленного материала и не желаете чтобы ссылка на него находилась в нашем каталоге, свяжитесь с нами и мы незамедлительно удалим её. Файлы для обмена на трекере предоставлены пользователями сайта, и администрация не несёт ответственности за их содержание. Просьба не заливать файлы, защищенные авторскими правами, а также файлы нелегального содержания!