На всех торрентах на трекере установлена скидка на скачивание в размере 100 процентов(а).
 Возможность скачивания торрента НЕ зависит от ограничений при низком ратио, низком аплоаде, требуемом ратио или требуемом аплоаде.


Начать новую тему Ответить на тему
Статистика раздачи
Размер: 7.76 ГБ | Добавлен: 10 ноя 2013, 23:25 | Скачали: 0
Сидеров: 0  [0 байт/сек]    Личеров: 0  [0 байт/сек]
Пред. тема | След. тема 

Автор
Сообщение

СообщениеДобавлено: 10 ноя 2013, 23:25 

Название: Приют
Оригинальное название: The Orphanage / El Orfanato
Год выхода: 2007
Жанр: триллер, драма, детектив, мистика
Режиссер: Хуан Антонио Байона

В ролях: Белен Руэда, Фернандо Кайо, Мэйбл Ривера, Эдгар Вивар, Оскар Касас, Алехандро Кампос, Кармен Лопез, Оскар Лара, Джеральдин Чаплин, Бланка Мартинез

О фильме:
Самые счастливые годы Лаура провела в сиротском приюте на побережье. Любимые воспитатели заменили ей родителей, а друзья — братьев и сестер. Через тридцать лет Лаура возвращается в дом своего детства с мужем и семилетним сыном. Она мечтает восстановить его и открыть для новых маленьких посетителей. Однако героиню поразили перемены, произошедшие с ее собственным сыном.
Из милого мальчика он превратился в маленького монстра с жестокими фантазиями и опасными играми. Она уверена, что во всем виноват старый дом, таящий скрытую угрозу. Постепенно картины прошлого всплывают в памяти Лауры и открывают ей страшную истину….



Выпущено: Испания
Продолжительность: 01:45:33
Перевод: Дублированный + Оригинал


Кодек: x264
Качество: BDRip 1080p
Видео: 1920x816, 9248 Kbps, 23.976 fps
Аудио #1: AC-3, 6 ch, 640 kbps (Rus)
Аудио #2: AC-3, 6 ch, 640 kbps (Spa)
Субтитры: русские, английские

Общее
Уникальный идентификатор : 219094164213312645679898646996013268449 (0xA4D4004B5BF996C998BD6B6FA333BDE1)
Полное имя : Приют.2007.BDRip.1080p.Rus.Spa.mkv
Формат : Matroska
Версия формата : Version 2
Размер файла : 7,76 Гбайт
Продолжительность : 1 ч. 45 м.
Общий поток : 10,5 Мбит/сек
Название фильма : Приют.2007
Дата кодирования : UTC 2013-11-10 17:38:02
Программа кодирования : mkvmerge v5.8.0 ('No Sleep / Pillow') built on Sep 2 2012 15:37:04
Библиотека кодирования : libebml v1.2.3 + libmatroska v1.3.0

Видео
Идентификатор : 1
Формат : AVC
Формат/Информация : Advanced Video Codec
Профиль формата : High@L4.1
Параметр CABAC формата : Да
Параметр ReFrames формата : 5 кадров
Идентификатор кодека : V_MPEG4/ISO/AVC
Продолжительность : 1 ч. 45 м.
Битрейт : 9248 Кбит/сек
Ширина : 1920 пикселей
Высота : 816 пикселей
Соотношение сторон : 2,35:1
Режим частоты кадров : Постоянный
Частота кадров : 23,976 кадра/сек
Цветовое пространство : YUV
Субдискретизация насыщенности : 4:2:0
Битовая глубина : 8 бит
Тип развёртки : Прогрессивная
Бит/(Пиксели*Кадры) : 0.246
Размер потока : 6,66 Гбайт (86%)
Заголовок : Rip by Boriy
Библиотека кодирования : x264 core 140 r2377 1ca7bb9
Настройки программы : cabac=1 / ref=5 / deblock=1:-3:-3 / analyse=0x3:0x113 / me=umh / subme=11 / psy=1 / psy_rd=1.00:0.00 / mixed_ref=1 / me_range=32 / chroma_me=1 / trellis=2 / 8x8dct=1 / cqm=0 / deadzone=21,11 / fast_pskip=0 / chroma_qp_offset=-2 / threads=12 / lookahead_threads=1 / sliced_threads=0 / nr=0 / decimate=0 / interlaced=0 / bluray_compat=0 / constrained_intra=0 / bframes=6 / b_pyramid=2 / b_adapt=2 / b_bias=0 / direct=3 / weightb=1 / open_gop=0 / weightp=2 / keyint=240 / keyint_min=23 / scenecut=40 / intra_refresh=0 / rc=2pass / mbtree=0 / bitrate=9248 / ratetol=1.0 / qcomp=0.60 / qpmin=0 / qpmax=69 / qpstep=4 / cplxblur=20.0 / qblur=0.5 / ip_ratio=1.40 / pb_ratio=1.30 / aq=1:0.80
Язык : English
Default : Да
Forced : Нет

Аудио #1
Идентификатор : 2
Формат : AC-3
Формат/Информация : Audio Coding 3
Расширение режима : CM (complete main)
Параметр Endianness формата : Big
Идентификатор кодека : A_AC3
Продолжительность : 1 ч. 45 м.
Вид битрейта : Постоянный
Битрейт : 640 Кбит/сек
Каналы : 6 каналов
Расположение каналов : Front: L C R, Side: L R, LFE
Частота : 48,0 КГц
Битовая глубина : 16 бит
Метод сжатия : С потерями
Размер потока : 483 Мбайт (6%)
Заголовок : Дубляж
Язык : Russian
Default : Да
Forced : Нет

Аудио #2
Идентификатор : 3
Формат : AC-3
Формат/Информация : Audio Coding 3
Расширение режима : CM (complete main)
Параметр Endianness формата : Big
Идентификатор кодека : A_AC3
Продолжительность : 1 ч. 45 м.
Вид битрейта : Постоянный
Битрейт : 640 Кбит/сек
Каналы : 6 каналов
Расположение каналов : Front: L C R, Side: L R, LFE
Частота : 48,0 КГц
Битовая глубина : 16 бит
Метод сжатия : С потерями
Размер потока : 483 Мбайт (6%)
Заголовок : Оригинал
Язык : Spanish
Default : Нет
Forced : Нет

Текст #1
Идентификатор : 4
Формат : UTF-8
Идентификатор кодека : S_TEXT/UTF8
Идентификатор кодека/Информация : UTF-8 Plain Text
Язык : Russian
Default : Нет
Forced : Нет

Текст #2
Идентификатор : 5
Формат : UTF-8
Идентификатор кодека : S_TEXT/UTF8
Идентификатор кодека/Информация : UTF-8 Plain Text
Язык : English
Default : Нет
Forced : Нет

Меню
00:00:00.000 : :Chapter 1
00:09:40.579 : :Chapter 2
00:19:54.193 : :Chapter 3
00:29:44.783 : :Chapter 4
00:39:37.375 : :Chapter 5
00:50:51.047 : :Chapter 6
01:02:13.729 : :Chapter 7
01:11:19.275 : :Chapter 8
01:20:50.845 : :Chapter 9
01:32:05.520 : :Chapter 10
01:41:23.077 : :Chapter 11
01:45:32.326 : :Chapter 12
загрузка...
Правила, инструкции, FAQ!!!
Торрент  Добавлен [10 ноя 2013, 23:25] Скачать торрент
Скачать торрент
[ Размер 39.22 КБ / Просмотров 8 ]

Статус  
 
Размер  7.76 ГБ
Приватный: Нет (DHT включён)
.torrent скачан  0
Как залить торрент? | Как скачать Torrent? | Как смотреть и слушать онлайн?  


     Отправить личное сообщение
   
Страница 1 из 1
Показать сообщения за:  Поле сортировки  
Начать новую тему Ответить на тему

   Похожие торренты   Автор   Ответы   Просмотры   Последнее сообщение 
В этой теме нет новых непрочитанных сообщений. Скачать торрент Приют / The Orphanage / El Orfanato (Хуан Антонио Байона / Juan Antonio Bayona) [2007 г., Ужасы, триллер, драма, детектив, HDRip] Dub

в форуме Ужасы, Размер: 745.22 МБ, Здоровье: 0%

Anonymous

0
0|0

31
0

12 фев 2014, 11:47

Anonymous Перейти к последнему сообщению

В этой теме нет новых непрочитанных сообщений. Скачать торрент Выходы на чердак / Приют кошмаров / Приют ужасов / The Attic Expeditions (Джерами Кастен / Jeremy Kasten) [2001, США, ужасы, триллер, комедия, DVDRip] AVO (Кузнецов)

в форуме Ужасы, Размер: 745.72 МБ, Здоровье: 0%

Anonymous

0
0|0

42
1

10 фев 2014, 13:03

Anonymous Перейти к последнему сообщению

В этой теме нет новых непрочитанных сообщений. Скачать торрент Проверен Кука (2007) BDRip 1080p

в форуме 720p | 1080p, Размер: 4.36 ГБ, Здоровье: 100%

Anonymous

0
53|6

25
375

26 сен 2014, 16:47

Anonymous Перейти к последнему сообщению

В этой теме нет новых непрочитанных сообщений. Скачать торрент Проверен Наркоз / Awake (2007) BDRip 1080p

в форуме 720p | 1080p, Размер: 7.91 ГБ, Здоровье: 100%

Гость

0
42|3

35
271

06 фев 2015, 22:07

Гость Перейти к последнему сообщению

В этой теме нет новых непрочитанных сообщений. Скачать торрент Проверен Вторжение / The Invasion (2007) BDRip 1080p

в форуме 720p | 1080p, Размер: 8.4 ГБ, Здоровье: 0%

Anonymous

0
0|0

38
1

10 дек 2014, 19:09

Anonymous Перейти к последнему сообщению



Сейчас этот форум просматривают: нет зарегистрированных пользователей и гости: 3


Вы не можете начинать темы
Вы не можете отвечать на сообщения
Вы не можете редактировать свои сообщения
Вы не можете удалять свои сообщения
Вы не можете добавлять вложения

Перейти:  

!ВНИМАНИЕ!
 Ресурс не предоставляет электронные версии произведений, а занимается лишь коллекционированием и каталогизацией ссылок, присылаемых и публикуемых на форуме нашими читателями. Если вы являетесь правообладателем какого-либо представленного материала и не желаете чтобы ссылка на него находилась в нашем каталоге, свяжитесь с нами и мы незамедлительно удалим её. Файлы для обмена на трекере предоставлены пользователями сайта, и администрация не несёт ответственности за их содержание. Просьба не заливать файлы, защищенные авторскими правами, а также файлы нелегального содержания!