На всех торрентах на трекере установлена скидка на скачивание в размере 100 процентов(а).
 Возможность скачивания торрента НЕ зависит от ограничений при низком ратио, низком аплоаде, требуемом ратио или требуемом аплоаде.


Начать новую тему Ответить на тему
Статистика раздачи
Размер: 10.74 ГБ | Добавлен: 09 ноя 2013, 22:32 | Скачали: 0
Сидеров: 0  [0 байт/сек]    Личеров: 0  [0 байт/сек]
Пред. тема | След. тема 

Автор
Сообщение

СообщениеДобавлено: 09 ноя 2013, 22:32 

Страна: США
Студия: Legendary Pictures
Жанр: фантастика, фэнтези, боевик, приключения
Год выпуска: 2013
Продолжительность: 02:11:17

Перевод: русский + украинский профессиональные (полное дублирование) [Лицензия, BD EUR]
Оригинальная аудиодорожка: английская
Русские субтитры: есть
Режиссер: Гильермо дель Торо / Guillermo del Toro
В ролях: Чарли Ханнэм, Идрис Эльба, Ринко Кикути, Роберт Казински, Макс Мартини, Чарли Дэй, Берн Горман, Клифтон Коллинз мл., Рон Перлман, Диего Клаттенхофф



Когда из морских глубин поднялись легионы чудовищ, известных как Кайдзу, началась война, которой суждено было забрать миллионы жизней и свести «человеческие ресурсы» почти к нулю всего за несколько лет. Чтобы сражаться с пришельцами, было создано специальное оружие: огромные роботы, названные Джегерами, они управлялись одновременно двумя пилотами, чьи сознания соединены с помощью нейронной связи. Но даже Джегеры оказываются почти бессильны перед лицом безжалостных Кайдзу. На грани поражения у защитников человечества нет выбора, кроме как обратиться к двум весьма сомнительным героям — никому не нужному бывшему пилоту и неопытному стажеру — которые объединились, чтобы повести в бой некогда легендарного, но сейчас устаревшего Джегера. Вместе они оказываются единственной надеждой человечества, последним препятствием перед надвигающимся апокалипсисом.


Тип релиза: BDRip 1080p (исходник: Тихоокеанский рубеж / Pacific Rim (2013) Blu-ray Disc [EUR]
Контейнер: MKV
Видео кодек: x264
Аудио кодек: AC3
Видео: AVC / High@L4.1 / 2 pass / 23,976 fps / 1920x1080p (16:9) / 9,8 Mbps / 0.197
Аудио 1: AC3 / 5.1 ch / 640 kbps / Русский дубляж, BD EUR
Аудио 2: AC3 / 5.1 ch / 640 kbps / Украинский дубляж, BD EUR
Аудио 3: AC3 / 5.1 ch / 640 kbps / Английский original, BD US
Субтитры: [softsub SRT]
Русские Forced, BD EUR (включены по умолчанию)
Русские Full, BD EUR
Русские Full, Voronine
Украинские Forced, iTunes
Украинские Full, iTunes
Английские Full, BD US
Английские SDH, BD US
Английские SDH-COLOR, mod. BD US
Дополнительно: Сохранены оригинальные чаптеры (главы) как на Blu-ray


Раздача от:













x264 [info]: frame I:1484 Avg QP:16.99 size:169444
x264 [info]: frame P:61569 Avg QP:19.65 size: 79330
x264 [info]: frame B:125805 Avg QP:22.32 size: 35827

Общее
Уникальный идентификатор : 177013683567940283299998114898579321947 (0x852B986A7E9CA7289E785AC3A784745B)
Полное имя : F:Скачка торрентPacific.Rim.2013.BDRip1080p(Killbrain)_[scarabey.org].mkv
Формат : Matroska
Версия формата : Version 2
Размер файла : 10,7 Гбайт
Продолжительность : 2 ч. 11 м.
Общий поток : 11,7 Мбит/сек
Название фильма : Pacific Rim (2013) by Killbrain
Дата кодирования : UTC 2013-11-09 17:42:33
Программа кодирования : mkvmerge v5.8.0 ('No Sleep / Pillow') built on Sep 2 2012 15:37:04
Библиотека кодирования : libebml v1.2.3 + libmatroska v1.3.0

Видео
Идентификатор : 1
Формат : AVC
Формат/Информация : Advanced Video Codec
Профиль формата : High@L4.1
Параметр CABAC формата : Да
Параметр ReFrames формата : 4 кадра
Идентификатор кодека : V_MPEG4/ISO/AVC
Продолжительность : 2 ч. 11 м.
Битрейт : 9800 Кбит/сек
Ширина : 1920 пикселей
Высота : 1080 пикселей
Соотношение сторон : 16:9
Режим частоты кадров : Постоянный
Частота кадров : 23,976 кадра/сек
Цветовое пространство : YUV
Субдискретизация насыщенности : 4:2:0
Битовая глубина : 8 бит
Тип развёртки : Прогрессивная
Бит/(Пиксели*Кадры) : 0.197
Размер потока : 8,77 Гбайт (82%)
Заголовок : Pacific Rim (2013)
Библиотека кодирования : x264 core 138 r2358 9e941d1
Настройки программы : cabac=1 / ref=4 / deblock=1:-3:-3 / analyse=0x3:0x113 / me=umh / subme=10 / psy=1 / psy_rd=1.00:0.05 / mixed_ref=1 / me_range=32 / chroma_me=1 / trellis=2 / 8x8dct=1 / cqm=0 / deadzone=21,11 / fast_pskip=0 / chroma_qp_offset=-3 / threads=3 / lookahead_threads=1 / sliced_threads=0 / nr=0 / decimate=0 / interlaced=0 / bluray_compat=0 / constrained_intra=0 / bframes=8 / b_pyramid=2 / b_adapt=2 / b_bias=0 / direct=3 / weightb=1 / open_gop=0 / weightp=2 / keyint=240 / keyint_min=24 / scenecut=40 / intra_refresh=0 / rc_lookahead=60 / rc=2pass / mbtree=0 / bitrate=9800 / ratetol=1.0 / qcomp=0.65 / qpmin=0 / qpmax=69 / qpstep=4 / cplxblur=20.0 / qblur=0.5 / vbv_maxrate=40000 / vbv_bufsize=30000 / nal_hrd=none / ip_ratio=1.40 / pb_ratio=1.30 / aq=1:0.90
Язык : English
Default : Да
Forced : Нет

Аудио #1
Идентификатор : 2
Формат : AC-3
Формат/Информация : Audio Coding 3
Расширение режима : CM (complete main)
Параметр Endianness формата : Big
Идентификатор кодека : A_AC3
Продолжительность : 2 ч. 11 м.
Вид битрейта : Постоянный
Битрейт : 640 Кбит/сек
Каналы : 6 каналов
Расположение каналов : Front: L C R, Side: L R, LFE
Частота : 48,0 КГц
Битовая глубина : 16 бит
Метод сжатия : С потерями
Размер потока : 601 Мбайт (5%)
Заголовок : AC3 / 5.1 ch / 640 kbps / Русский дубляж, BD EUR
Язык : Russian
Default : Да
Forced : Нет

Аудио #2
Идентификатор : 3
Формат : AC-3
Формат/Информация : Audio Coding 3
Расширение режима : CM (complete main)
Параметр Endianness формата : Big
Идентификатор кодека : A_AC3
Продолжительность : 2 ч. 11 м.
Вид битрейта : Постоянный
Битрейт : 640 Кбит/сек
Каналы : 6 каналов
Расположение каналов : Front: L C R, Side: L R, LFE
Частота : 48,0 КГц
Битовая глубина : 16 бит
Метод сжатия : С потерями
Размер потока : 601 Мбайт (5%)
Заголовок : AC3 / 5.1 ch / 640 kbps / Украинский дубляж, BD EUR
Язык : Ukrainian
Default : Нет
Forced : Нет

Аудио #3
Идентификатор : 4
Формат : AC-3
Формат/Информация : Audio Coding 3
Расширение режима : CM (complete main)
Параметр Endianness формата : Big
Идентификатор кодека : A_AC3
Продолжительность : 2 ч. 11 м.
Вид битрейта : Постоянный
Битрейт : 640 Кбит/сек
Каналы : 6 каналов
Расположение каналов : Front: L C R, Side: L R, LFE
Частота : 48,0 КГц
Битовая глубина : 16 бит
Метод сжатия : С потерями
Размер потока : 601 Мбайт (5%)
Заголовок : AC3 / 5.1 ch / 640 kbps / Английский original, BD US
Язык : English
Default : Нет
Forced : Нет

Текст #1
Идентификатор : 5
Формат : UTF-8
Идентификатор кодека : S_TEXT/UTF8
Идентификатор кодека/Информация : UTF-8 Plain Text
Заголовок : Forced, BD EUR
Язык : Russian
Default : Да
Forced : Нет

Текст #2
Идентификатор : 6
Формат : UTF-8
Идентификатор кодека : S_TEXT/UTF8
Идентификатор кодека/Информация : UTF-8 Plain Text
Заголовок : Full, BD EUR
Язык : Russian
Default : Нет
Forced : Нет

Текст #3
Идентификатор : 7
Формат : UTF-8
Идентификатор кодека : S_TEXT/UTF8
Идентификатор кодека/Информация : UTF-8 Plain Text
Заголовок : Full, Voronine
Язык : Russian
Default : Нет
Forced : Нет

Текст #4
Идентификатор : 8
Формат : UTF-8
Идентификатор кодека : S_TEXT/UTF8
Идентификатор кодека/Информация : UTF-8 Plain Text
Заголовок : Forced, iTunes
Язык : Ukrainian
Default : Нет
Forced : Нет

Текст #5
Идентификатор : 9
Формат : UTF-8
Идентификатор кодека : S_TEXT/UTF8
Идентификатор кодека/Информация : UTF-8 Plain Text
Заголовок : Full, iTunes
Язык : Ukrainian
Default : Нет
Forced : Нет

Текст #6
Идентификатор : 10
Формат : UTF-8
Идентификатор кодека : S_TEXT/UTF8
Идентификатор кодека/Информация : UTF-8 Plain Text
Заголовок : Full, BD US
Язык : English
Default : Нет
Forced : Нет

Текст #7
Идентификатор : 11
Формат : UTF-8
Идентификатор кодека : S_TEXT/UTF8
Идентификатор кодека/Информация : UTF-8 Plain Text
Заголовок : SDH, BD US
Язык : English
Default : Нет
Forced : Нет

Текст #8
Идентификатор : 12
Формат : UTF-8
Идентификатор кодека : S_TEXT/UTF8
Идентификатор кодека/Информация : UTF-8 Plain Text
Заголовок : SDH-COLOR, mod. BD US
Язык : English
Default : Нет
Forced : Нет

Меню
00:00:00.000 : :Chapter 01
00:09:09.131 : :Chapter 02
00:18:35.823 : :Chapter 03
00:23:04.341 : :Chapter 04
00:33:00.395 : :Chapter 05
00:42:44.895 : :Chapter 06
00:50:01.665 : :Chapter 07
01:01:09.666 : :Chapter 08
01:14:45.105 : :Chapter 09
01:22:21.311 : :Chapter 10
01:32:09.941 : :Chapter 11
01:41:55.609 : :Chapter 12
01:51:37.857 : :Chapter 13
01:59:21.028 : :Chapter 14
02:02:17.830 : :Chapter 15





загрузка...
Правила, инструкции, FAQ!!!
Торрент  Добавлен [09 ноя 2013, 22:32] Скачать торрент
Скачать торрент
[ Размер 27.47 КБ / Просмотров 7 ]

Статус  
 
Размер  10.74 ГБ
Приватный: Нет (DHT включён)
.torrent скачан  0
Как залить торрент? | Как скачать Torrent? | Как смотреть и слушать онлайн?  


     Отправить личное сообщение
   
Страница 1 из 1
Показать сообщения за:  Поле сортировки  
Начать новую тему Ответить на тему

   Похожие торренты   Автор   Ответы   Просмотры   Последнее сообщение 
В этой теме нет новых непрочитанных сообщений. Скачать торрент [Игра] (Android 2.2+) Тихоокеанский рубеж (Pacific Rim: The Mobile Game) v1.1.0

в форуме Android игры, Размер: 224.3 МБ, Здоровье: 0%

Anonymous

0
0|0

52
1

11 фев 2014, 23:03

Anonymous Перейти к последнему сообщению

В этой теме нет новых непрочитанных сообщений. Скачать торрент Проверен Последний рубеж / Homefront (2013) BDRip 1080p | D | Лицензия

в форуме 720p | 1080p, Размер: 8.71 ГБ, Здоровье: 100%

Anonymous

0
64|3

47
212

26 май 2014, 07:16

Anonymous Перейти к последнему сообщению

В этой теме нет новых непрочитанных сообщений. Скачать торрент Владение 18 (2013) BDRip 1080p | Лицензия

в форуме 720p | 1080p, Размер: 7.01 ГБ, Здоровье: 100%

Anonymous

0
28|1

36
351

12 апр 2014, 13:52

Anonymous Перейти к последнему сообщению

В этой теме нет новых непрочитанных сообщений. Скачать торрент Армагеддец / The World's End (2013) BDRip 1080p | Лицензия

в форуме 720p | 1080p, Размер: 15.86 ГБ, Здоровье: 0%

Anonymous

0
0|0

26
0

17 янв 2014, 18:40

Anonymous Перейти к последнему сообщению

В этой теме нет новых непрочитанных сообщений. Скачать торрент Паранойя / Paranoia (2013) BDRip 1080p | Лицензия

в форуме 720p | 1080p, Размер: 9.02 ГБ, Здоровье: 100%

Anonymous

0
30|0

34
270

01 апр 2014, 23:18

Anonymous Перейти к последнему сообщению



Сейчас этот форум просматривают: нет зарегистрированных пользователей и гости: 2


Вы не можете начинать темы
Вы не можете отвечать на сообщения
Вы не можете редактировать свои сообщения
Вы не можете удалять свои сообщения
Вы не можете добавлять вложения

Перейти:  

!ВНИМАНИЕ!
 Ресурс не предоставляет электронные версии произведений, а занимается лишь коллекционированием и каталогизацией ссылок, присылаемых и публикуемых на форуме нашими читателями. Если вы являетесь правообладателем какого-либо представленного материала и не желаете чтобы ссылка на него находилась в нашем каталоге, свяжитесь с нами и мы незамедлительно удалим её. Файлы для обмена на трекере предоставлены пользователями сайта, и администрация не несёт ответственности за их содержание. Просьба не заливать файлы, защищенные авторскими правами, а также файлы нелегального содержания!