На всех торрентах на трекере установлена скидка на скачивание в размере 100 процентов(а).
 Возможность скачивания торрента НЕ зависит от ограничений при низком ратио, низком аплоаде, требуемом ратио или требуемом аплоаде.


Начать новую тему Ответить на тему
Статистика раздачи
Размер: 5.76 ГБ | Добавлен: 09 ноя 2013, 21:36 | Скачали: 0
Сидеров: 0  [0 байт/сек]    Личеров: 0  [0 байт/сек]
Пред. тема | След. тема 

Автор
Сообщение

СообщениеДобавлено: 09 ноя 2013, 21:36 

Название: Точка обстрела
Оригинальное название: Vantage Point
Год выхода: 2008
Жанр: боевик, триллер, драма, криминал
Режиссер: Пит Трэвис / Pete Travis

В ролях: Деннис Куэйд, Мэттью Фокс, Форест Уитакер, Брюс МакГилл, Эдгар Рамирез, Саид Тагмауи, Айелет Зурер, Зои Салдана, Сигурни Уивер, Уильям Хёрт

О фильме:
Во время публичного выступления на антитеррористическом форуме в Саламанке, Испания от рук экстремистов погибает президент США — так, по-крайней мере, событие выглядит на первый взгляд. Вслед за этим мощный взрыв убивает сотни людей. Случившееся показано с разных точек зрения: сотрудников спецслужб, случайных прохожих, террориста-фанатика…
Только проследив за происходящим через призму восприятия каждого из этих людей, можно приблизиться к пониманию истиной сути событий, связанных с покушением.



Выпущено: США
Продолжительность: 01:30:05
Перевод: Дублированный + Оригинал


Кодек: x264
Качество: BDRip 1080p
Видео: 1920x800, 8270 Kbps, 23.976 fps
Аудио #1: AC-3, 6 ch, 448 kbps (Rus)
Аудио #2: AC-3, 6 ch, 448 kbps (Eng)
Субтитры: русские (полные, форсированные), английские (полные, форсированные)

Общее
Уникальный идентификатор : 173400847867709369292155631691736715259 (0x8273C9DD0A4A32E796248D3225728FFB)
Полное имя : Точка обстрела.2008.BDRip.1080p.Rus.Eng.mkv
Формат : Matroska
Версия формата : Version 2
Размер файла : 5,76 Гбайт
Продолжительность : 1 ч. 30 м.
Общий поток : 9157 Кбит/сек
Название фильма : Точка обстрела.2008
Дата кодирования : UTC 2013-11-09 15:39:47
Программа кодирования : mkvmerge v5.8.0 ('No Sleep / Pillow') built on Sep 2 2012 15:37:04
Библиотека кодирования : libebml v1.2.3 + libmatroska v1.3.0

Видео
Идентификатор : 1
Формат : AVC
Формат/Информация : Advanced Video Codec
Профиль формата : High@L4.1
Параметр CABAC формата : Да
Параметр ReFrames формата : 5 кадров
Идентификатор кодека : V_MPEG4/ISO/AVC
Продолжительность : 1 ч. 30 м.
Битрейт : 8270 Кбит/сек
Ширина : 1920 пикселей
Высота : 800 пикселей
Соотношение сторон : 2,40:1
Режим частоты кадров : Постоянный
Частота кадров : 23,976 кадра/сек
Цветовое пространство : YUV
Субдискретизация насыщенности : 4:2:0
Битовая глубина : 8 бит
Тип развёртки : Прогрессивная
Бит/(Пиксели*Кадры) : 0.225
Размер потока : 5,08 Гбайт (88%)
Заголовок : Rip by Boriy
Библиотека кодирования : x264 core 140 r2377 1ca7bb9
Настройки программы : cabac=1 / ref=5 / deblock=1:-3:-3 / analyse=0x3:0x113 / me=umh / subme=11 / psy=1 / psy_rd=1.00:0.00 / mixed_ref=1 / me_range=32 / chroma_me=1 / trellis=2 / 8x8dct=1 / cqm=0 / deadzone=21,11 / fast_pskip=0 / chroma_qp_offset=-2 / threads=12 / lookahead_threads=1 / sliced_threads=0 / nr=0 / decimate=0 / interlaced=0 / bluray_compat=0 / constrained_intra=0 / bframes=6 / b_pyramid=2 / b_adapt=2 / b_bias=0 / direct=3 / weightb=1 / open_gop=0 / weightp=2 / keyint=240 / keyint_min=23 / scenecut=40 / intra_refresh=0 / rc=2pass / mbtree=0 / bitrate=8270 / ratetol=1.0 / qcomp=0.60 / qpmin=0 / qpmax=69 / qpstep=4 / cplxblur=20.0 / qblur=0.5 / ip_ratio=1.40 / pb_ratio=1.30 / aq=1:0.80
Язык : English
Default : Да
Forced : Нет

Аудио #1
Идентификатор : 2
Формат : AC-3
Формат/Информация : Audio Coding 3
Расширение режима : CM (complete main)
Параметр Endianness формата : Big
Идентификатор кодека : A_AC3
Продолжительность : 1 ч. 30 м.
Вид битрейта : Постоянный
Битрейт : 448 Кбит/сек
Каналы : 6 каналов
Расположение каналов : Front: L C R, Side: L R, LFE
Частота : 48,0 КГц
Битовая глубина : 16 бит
Метод сжатия : С потерями
Размер потока : 289 Мбайт (5%)
Заголовок : Дубляж
Язык : Russian
Default : Да
Forced : Нет

Аудио #2
Идентификатор : 3
Формат : AC-3
Формат/Информация : Audio Coding 3
Расширение режима : CM (complete main)
Параметр Endianness формата : Big
Идентификатор кодека : A_AC3
Продолжительность : 1 ч. 30 м.
Вид битрейта : Постоянный
Битрейт : 448 Кбит/сек
Каналы : 6 каналов
Расположение каналов : Front: L C R, Side: L R, LFE
Частота : 48,0 КГц
Битовая глубина : 16 бит
Метод сжатия : С потерями
Размер потока : 289 Мбайт (5%)
Заголовок : Оригинал
Язык : English
Default : Нет
Forced : Нет

Текст #1
Идентификатор : 4
Формат : UTF-8
Идентификатор кодека : S_TEXT/UTF8
Идентификатор кодека/Информация : UTF-8 Plain Text
Заголовок : Forced
Язык : Russian
Default : Да
Forced : Да

Текст #2
Идентификатор : 5
Формат : UTF-8
Идентификатор кодека : S_TEXT/UTF8
Идентификатор кодека/Информация : UTF-8 Plain Text
Заголовок : Full
Язык : Russian
Default : Нет
Forced : Нет

Текст #3
Идентификатор : 6
Формат : UTF-8
Идентификатор кодека : S_TEXT/UTF8
Идентификатор кодека/Информация : UTF-8 Plain Text
Заголовок : Forced
Язык : English
Default : Нет
Forced : Нет

Текст #4
Идентификатор : 7
Формат : UTF-8
Идентификатор кодека : S_TEXT/UTF8
Идентификатор кодека/Информация : UTF-8 Plain Text
Заголовок : Full
Язык : English
Default : Нет
Forced : Нет

Меню
00:00:00.000 : :Chapter 1
00:05:33.624 : :Chapter 2
00:11:52.837 : :Chapter 3
00:18:31.318 : :Chapter 4
00:22:29.973 : :Chapter 5
00:26:03.728 : :Chapter 6
00:30:36.251 : :Chapter 7
00:37:00.051 : :Chapter 8
00:42:50.985 : :Chapter 9
00:48:51.303 : :Chapter 10
00:51:50.315 : :Chapter 11
00:54:42.195 : :Chapter 12
00:59:53.464 : :Chapter 13
01:04:56.767 : :Chapter 14
01:12:05.446 : :Chapter 15
01:18:19.903 : :Chapter 16
загрузка...
Правила, инструкции, FAQ!!!
Торрент  Добавлен [09 ноя 2013, 21:36] Скачать торрент
Скачать торрент
[ Размер 29.26 КБ / Просмотров 9 ]

Статус  
 
Размер  5.76 ГБ
Приватный: Нет (DHT включён)
.torrent скачан  0
Как залить торрент? | Как скачать Torrent? | Как смотреть и слушать онлайн?  


     Отправить личное сообщение
   
Страница 1 из 1
Показать сообщения за:  Поле сортировки  
Начать новую тему Ответить на тему

   Похожие торренты   Автор   Ответы   Просмотры   Последнее сообщение 
В этой теме нет новых непрочитанных сообщений. Скачать торрент Проверен (Blues/Rock) Chris Duarte Group - Vantage Point - 2008, FLAC (tracks+.cue), lossless

в форуме Blues (Texas, Chicago, Modern and Others), Размер: 511.31 МБ, Здоровье: 0%

Anonymous

0
0|0

0
0

16 окт 2016, 14:11

Anonymous Перейти к последнему сообщению

В этой теме нет новых непрочитанных сообщений. Скачать торрент Проверен (Hard Rock) Vantage - Vantage - 2015 (EP), MP3, 320 kbps

в форуме Classic Rock & Hard Rock, Размер: 57 МБ, Здоровье: 0%

Anonymous

0
0|0

0
0

13 ноя 2016, 11:18

Anonymous Перейти к последнему сообщению

В этой теме нет новых непрочитанных сообщений. Скачать торрент Проверен Точка прерывания / Termination Point (2007) DVDRip

в форуме Фантастика, Фэнтези, Размер: 1.37 ГБ, Здоровье: 100%

Anonymous

0
19|2

60
430

25 авг 2014, 20:08

Anonymous Перейти к последнему сообщению

В этой теме нет новых непрочитанных сообщений. Скачать торрент Проверен M. Pottenger / М. Поттенджер - The East Point and the Antivertex / Восточная точка и Антивертекс. [2010, PDF, RUS]

в форуме Астрология, Размер: 9.61 МБ, Здоровье: 0%

Anonymous

0
0|0

1
0

11 сен 2016, 23:07

Anonymous Перейти к последнему сообщению

В этой теме нет новых непрочитанных сообщений. Скачать торрент Проверен Три часа на побег (В упор) / À bout portant (Point Blank) (2010) BDRip 1080p | P,A,L

в форуме 720p | 1080p, Размер: 7.87 ГБ, Здоровье: 100%

Anonymous

0
36|0

45
1781

26 июл 2014, 07:53

Anonymous Перейти к последнему сообщению



Сейчас этот форум просматривают: нет зарегистрированных пользователей и гости: 1


Вы не можете начинать темы
Вы не можете отвечать на сообщения
Вы не можете редактировать свои сообщения
Вы не можете удалять свои сообщения
Вы не можете добавлять вложения

Перейти:  

!ВНИМАНИЕ!
 Ресурс не предоставляет электронные версии произведений, а занимается лишь коллекционированием и каталогизацией ссылок, присылаемых и публикуемых на форуме нашими читателями. Если вы являетесь правообладателем какого-либо представленного материала и не желаете чтобы ссылка на него находилась в нашем каталоге, свяжитесь с нами и мы незамедлительно удалим её. Файлы для обмена на трекере предоставлены пользователями сайта, и администрация не несёт ответственности за их содержание. Просьба не заливать файлы, защищенные авторскими правами, а также файлы нелегального содержания!