На всех торрентах на трекере установлена скидка на скачивание в размере 100 процентов(а).
 Возможность скачивания торрента НЕ зависит от ограничений при низком ратио, низком аплоаде, требуемом ратио или требуемом аплоаде.


Начать новую тему Ответить на тему
Статистика раздачи
Размер: 3.39 ГБ | Добавлен: 09 ноя 2013, 09:30 | Скачали: 0
Сидеров: 0  [0 байт/сек]    Личеров: 0  [0 байт/сек]
Пред. тема | След. тема 

Автор
Сообщение

СообщениеДобавлено: 09 ноя 2013, 09:30 

Название: Привет, Герман
Оригинальное название: Hello Herman
Год выхода: 2012
Жанр: драма
Режиссер: Мишель Дэннер
В ролях: Норман Ридус, Гаррет Бэкстром, Марта Игареда, Роб Эстес, Сабрина Деблер, Энди МакФи, Оливия Фэй, Джейк Уайт, Алекс Нойбергер, Линдсэй Бушмен

О фильме: В одном из городов США, шестнадцатилетний Герман Ховардс приносит в свою школу пистолет, и убивает тридцать девять студентов, двух учителей и офицера полиции. Эту бойню Герман снимает на видео, и незадолго до ареста, посылает по электронной почте видео своему кумиру, известному журналисту Лаксу Моралесу. В этом видео он говорит Лаксу, что хочет рассказать свою историю в его шоу.



Выпущено: США
Продолжительность: 01:27:29
Озвучивание: Любительское (двухголосое) [DeadSno & den904]


Формат: MKV
Качество: BDRip 720p [PSYCHD]
Видео: 4909 kb/s, 1280x688
Аудио: Russian: AC3, 192 kb/s (2 ch) / English: AC3, 448 kb/s (6 ch)
Дополнительно: Сохранены оригинальные чаптеры как на Blu-Ray

Скачать: Сэмпл

Релиз группы:



General
Hello.Herman.2012.BDRip.720p.CINEMANIA.mkv
Format : Matroska
Format version : Version 4 / Version 2
File size : 3.39 GiB
Duration : 1h 27mn
Overall bit rate : 5 549 Kbps
Movie name : CINEMANIA.CC
Encoded date : UTC 2013-11-08 22:06:00
Writing application : mkvmerge v6.5.0 ('Isn't she lovely') built on Oct 20 2013 12:50:05
Writing library : libebml v1.3.0 + libmatroska v1.4.1

Video
ID : 1
Format : AVC
Format/Info : Advanced Video Codec
Format profile : High@L4.1
Format settings, CABAC : Yes
Format settings, ReFrames : 5 frames
Codec ID : V_MPEG4/ISO/AVC
Duration : 1h 27mn
Bit rate : 4 909 Kbps
Width : 1 280 pixels
Height : 688 pixels
Display aspect ratio : 1.85:1
Frame rate mode : Constant
Frame rate : 23.976 fps
Color space : YUV
Chroma subsampling : 4:2:0
Bit depth : 8 bits
Scan type : Progressive
Bits/(Pixel*Frame) : 0.232
Stream size : 2.93 GiB (86%)
Title : CINEMANIA.CC
Writing library : x264 core 138 r2358 9e941d1
Encoding settings : cabac=1 / ref=5 / deblock=1:-3:-3 / analyse=0x3:0x113 / me=umh / subme=8 / psy=1 / psy_rd=1.00:0.00 / mixed_ref=1 / me_range=16 / chroma_me=1 / trellis=1 / 8x8dct=1 / cqm=0 / deadzone=21,11 / fast_pskip=1 / chroma_qp_offset=-2 / threads=18 / lookahead_threads=3 / sliced_threads=0 / nr=0 / decimate=1 / interlaced=0 / bluray_compat=0 / constrained_intra=0 / bframes=3 / b_pyramid=2 / b_adapt=2 / b_bias=0 / direct=3 / weightb=1 / open_gop=0 / weightp=2 / keyint=240 / keyint_min=24 / scenecut=40 / intra_refresh=0 / rc_lookahead=50 / rc=2pass / mbtree=1 / bitrate=4909 / ratetol=1.0 / qcomp=0.60 / qpmin=0 / qpmax=69 / qpstep=4 / cplxblur=20.0 / qblur=0.5 / ip_ratio=1.40 / aq=1:1.00
Language : English
Default : Yes
Forced : No

Audio #1
ID : 2
Format : AC-3
Format/Info : Audio Coding 3
Mode extension : CM (complete main)
Format settings, Endianness : Big
Codec ID : A_AC3
Duration : 1h 27mn
Bit rate mode : Constant
Bit rate : 192 Kbps
Channel(s) : 2 channels
Channel positions : Front: L R
Sampling rate : 48.0 KHz
Bit depth : 16 bits
Compression mode : Lossy
Stream size : 120 MiB (3%)
Title : DeadSno & den904
Language : Russian
Default : Yes
Forced : Yes

Audio #2
ID : 3
Format : AC-3
Format/Info : Audio Coding 3
Mode extension : CM (complete main)
Format settings, Endianness : Big
Codec ID : A_AC3
Duration : 1h 27mn
Bit rate mode : Constant
Bit rate : 448 Kbps
Channel(s) : 6 channels
Channel positions : Front: L C R, Side: L R, LFE
Sampling rate : 48.0 KHz
Bit depth : 16 bits
Compression mode : Lossy
Stream size : 281 MiB (8%)
Language : English
Default : No
Forced : No

Menu
00:00:00.000 : en:00:00:00.000
00:07:10.430 : en:00:07:10.430
00:13:15.795 : en:00:13:15.795
00:23:31.410 : en:00:23:31.410
00:32:01.920 : en:00:32:01.920
00:38:52.330 : en:00:38:52.330
00:45:07.705 : en:00:45:07.705
00:48:57.935 : en:00:48:57.935
00:59:28.565 : en:00:59:28.565
01:04:43.880 : en:01:04:43.880
01:11:09.265 : en:01:11:09.265
01:18:09.685 : en:01:18:09.685

загрузка...
Правила, инструкции, FAQ!!!
Торрент  Добавлен [09 ноя 2013, 09:30] Скачать торрент
Скачать торрент
[ Размер 17.44 КБ / Просмотров 3 ]

Статус  
 
Размер  3.39 ГБ
Приватный: Нет (DHT включён)
.torrent скачан  0
Как залить торрент? | Как скачать Torrent? | Как смотреть и слушать онлайн?  


     Отправить личное сообщение
   
Страница 1 из 1
Показать сообщения за:  Поле сортировки  
Начать новую тему Ответить на тему

   Похожие торренты   Автор   Ответы   Просмотры   Последнее сообщение 
В этой теме нет новых непрочитанных сообщений. Скачать торрент Проверен Привет, Джули! / Flipped (2010) BDRip 720p | P

в форуме 720p | 1080p, Размер: 5.16 ГБ, Здоровье: 89%

Гость

0
35|39

149
23

07 авг 2015, 23:16

Гость Перейти к последнему сообщению

В этой теме нет новых непрочитанных сообщений. Скачать торрент Проверен Ellie Herman / Элли Герман - Pilates Props Workbook / Пилатес с инвентарем[2004, PDF,EPUB,MOBI, ENG]

в форуме Физкультура, фитнес, бодибилдинг, Размер: 12.47 МБ, Здоровье: 100%

Anonymous

0
5|3

3
1

04 окт 2016, 23:24

Anonymous Перейти к последнему сообщению

В этой теме нет новых непрочитанных сообщений. Скачать торрент Проверен (Hard Rock) Herman Rarebell & Friends - Herman's Scorpions Songs - 2014, MP3, 320 kbps

в форуме Classic Rock & Hard Rock, Размер: 128.18 МБ, Здоровье: 100%

Anonymous

0
2|1

0
0

13 ноя 2016, 19:10

Anonymous Перейти к последнему сообщению

В этой теме нет новых непрочитанных сообщений. Скачать торрент Проверен Герман О.В., Герман Ю.О. - Программирование на Java и С# для студента [2005, PDF, RUS]

в форуме Веб-дизайн и программирование, Размер: 4.89 МБ, Здоровье: 0%

Anonymous

0
0|0

0
1

22 окт 2016, 13:07

Anonymous Перейти к последнему сообщению

В этой теме нет новых непрочитанных сообщений. Скачать торрент Проверен (Hard Rock) [CD] Herman Rarebell & Friends - Herman's Scorpions Songs - 2014, FLAC (image+.cue), lossless

в форуме Classic Rock & Hard Rock, Размер: 391.47 МБ, Здоровье: 100%

Anonymous

0
5|2

0
0

04 сен 2016, 18:38

Anonymous Перейти к последнему сообщению



Сейчас этот форум просматривают: нет зарегистрированных пользователей и гости: 4


Вы не можете начинать темы
Вы не можете отвечать на сообщения
Вы не можете редактировать свои сообщения
Вы не можете удалять свои сообщения
Вы не можете добавлять вложения

Перейти:  

!ВНИМАНИЕ!
 Ресурс не предоставляет электронные версии произведений, а занимается лишь коллекционированием и каталогизацией ссылок, присылаемых и публикуемых на форуме нашими читателями. Если вы являетесь правообладателем какого-либо представленного материала и не желаете чтобы ссылка на него находилась в нашем каталоге, свяжитесь с нами и мы незамедлительно удалим её. Файлы для обмена на трекере предоставлены пользователями сайта, и администрация не несёт ответственности за их содержание. Просьба не заливать файлы, защищенные авторскими правами, а также файлы нелегального содержания!