На всех торрентах на трекере установлена скидка на скачивание в размере 100 процентов(а).
 Возможность скачивания торрента НЕ зависит от ограничений при низком ратио, низком аплоаде, требуемом ратио или требуемом аплоаде.


Начать новую тему Ответить на тему
Статистика раздачи
Размер: 6.65 ГБ | Добавлен: 08 ноя 2013, 19:51 | Скачали: 0
Сидеров: 0  [0 байт/сек]    Личеров: 0  [0 байт/сек]
Пред. тема | След. тема 

Автор
Сообщение

СообщениеДобавлено: 08 ноя 2013, 19:51 

Наемный убийца / Bounty Killer (2013) BDRip

Год выпуска: 2013
Производство: США | Just Chorizo Productions, Kickstart Productions
Жанр: Фантастика, Боевик, Триллер
Перевод: Многоголосый закадровый, профессиональный
Субтитры: Вшитые отключаемые
Язык субтитров: Английский (Full, SDH-Colored)
Дата российской премьеры: 5 апреля 2013 (США, Далласский кинофестиваль)
Дата выхода DVD релиза: 24 сентября 2013, «Парадиз / Активижен»
Режиссер: Генри Сэйн
Продюсер: Колин Эбелинг, Джейсон Неттер, Генри Сэйн
Актеры: Мэттью Мэрсден, Кристанна Локен, Кристиан Питре, Барак Хардли, Абрахам Бенруби Гэри Бьюзи, Беверли Д’Анджело, Ив, Кевин МакНэлли, Алекса Вега ...
Описание фильма:
Спустя двадцать лет после начала Корпоративной Мировой войны, некогда цветущая и плодородная планета превратилась в выжженную пустыню, усеянную полуразрушенными останками людских поселений. Среди непрекращающейся тьмы и разрухи на свет появился Совет Девяти Роз, призванный уничтожить всё, что хоть отдалённо напоминает о корпорациях. Так началась эпоха наёмных убийц, охотящихся за «белыми воротничками».


Продолжительность: 01:32:40
Качество видео: BDRip 1080p [CHD]

Видеокодек: MPEG-4 AVC/H.264
Битрейт видео: ~8570 Кбит/сек
Размер кадра: 1920 x 800 (2.400) at 23.976 fps : 0.233 Bits/Pixel
Аудио #1: AC3 192 Кбит/сек (2ch), 48,0 КГц, 16 бит [Русский, MVO]
Аудио #2: DTS 1509 Кбит/сек (6ch), 48,0 КГц, 24 бит [Английский]
Дополнительно: Сохранены оригинальные чаптеры как на Blu-ray
Релиз:
Код:
Код:
Уникальный идентификатор                 : 227124132195150568117868531970913992828 (0xAADE844856077B29903946CD541A007C)
Полное имя                               : H:\BDRip'ы\Наемный убийца Bounty Killer 2013 BluRay 1080p\Naemnie.Ubiyca.2013.P.BDRip.1080p.NNM-CLUB.mkv
Формат                                   : Matroska
Версия формата                           : Version 2
Размер файла                             : 6,65 Гбайт
Продолжительность                        : 1 ч. 32 м.
Общий поток                              : 10,3 Мбит/сек
Название фильма                          : Bounty.Killer.2013.BluRay.1080p.DTS.x264-CHD
Дата кодирования                         : UTC 2013-11-07 15:59:50
Программа кодирования                    : mkvmerge v2.9.9 ('Tutu') built on Nov 25 2009 21:13:32
Библиотека кодирования                   : libebml v0.7.9 + libmatroska v0.8.1

Видео
Идентификатор                            : 1
Формат                                   : AVC
Формат/Информация                        : Advanced Video Codec
Профиль формата                          :
Параметр CABAC формата                   : Да
Параметр ReFrames формата                : 5 кадров
Идентификатор кодека                     : V_MPEG4/ISO/AVC
Продолжительность                        : 1 ч. 32 м.
Битрейт                                  : 8570 Кбит/сек
Ширина                                   : 1920 пикселей
Высота                                   : 800 пикселей
Соотношение сторон                       : 2,40:1
Режим частоты кадров                     : Постоянный
Частота кадров                           : 23,976 кадра/сек
Цветовое пространство                    : YUV
Субдискретизация насыщенности            : 4:2:0
Битовая глубина                          : 8 бит
Тип развёртки                            : Прогрессивная
Бит/(Пиксели*Кадры)                      : 0.233
Размер потока                            : 5,42 Гбайт (81%)
Заголовок                                : -=Release for NNM-CLUB.RU=-
Библиотека кодирования                   : x264 core 138 r2356 a1d3d17
Настройки программы                      : cabac=1 / ref=5 / deblock=1:-2:-2 / analyse=0x3:0x113 / me=umh / subme=10 / psy=1 / psy_rd=1.00:0.05 / mixed_ref=1 / me_range=32 / chroma_me=1 / trellis=2 / 8x8dct=1 / cqm=0 / deadzone=21,11 / fast_pskip=0 / chroma_qp_offset=-2 / threads=18 / lookahead_threads=1 / sliced_threads=0 / nr=0 / decimate=1 / interlaced=0 / bluray_compat=0 / constrained_intra=0 / bframes=4 / b_pyramid=2 / b_adapt=2 / b_bias=0 / direct=3 / weightb=1 / open_gop=0 / weightp=2 / keyint=250 / keyint_min=23 / scenecut=40 / intra_refresh=0 / rc=2pass / mbtree=0 / bitrate=8570 / ratetol=1.0 / qcomp=0.70 / qpmin=0 / qpmax=69 / qpstep=4 / cplxblur=20.0 / qblur=0.5 / ip_ratio=1.40 / pb_ratio=1.30 / aq=2:1.00
Язык                                     : English
Default                                  : Нет
Forced                                   : Нет

Аудио #1
Идентификатор                            : 2
Формат                                   : AC-3
Формат/Информация                        : Audio Coding 3
Расширение режима                        : CM (complete main)
Параметр Endianness формата              : Big
Идентификатор кодека                     : A_AC3
Продолжительность                        : 1 ч. 32 м.
Вид битрейта                             : Постоянный
Битрейт                                  : 192 Кбит/сек
Каналы                                   : 2 канала
Расположение каналов                     : Front: L R
Частота                                  : 48,0 КГц
Битовая глубина                          : 16 бит
Метод сжатия                             : С потерями
Размер потока                            : 127 Мбайт (2%)
Заголовок                                : AC3.192.Kbps (2ch) Russian (MVO)
Язык                                     : Russian
Default                                  : Да
Forced                                   : Нет

Аудио #2
Идентификатор                            : 3
Формат                                   : DTS
Формат/Информация                        : Digital Theater Systems
Режим                                    : 16
Параметр Endianness формата              : Big
Идентификатор кодека                     : A_DTS
Продолжительность                        : 1 ч. 32 м.
Вид битрейта                             : Постоянный
Битрейт                                  : 1509 Кбит/сек
Каналы                                   : 6 каналов
Расположение каналов                     : Front: L C R, Side: L R, LFE
Частота                                  : 48,0 КГц
Битовая глубина                          : 24 бит
Метод сжатия                             : С потерями
Задержка видео                           : 11 мс.
Размер потока                            : 1000 Мбайт (15%)
Заголовок                                : DTS.1509.Kbps (6ch) English
Язык                                     : English
Default                                  : Нет
Forced                                   : Нет

Текст #1
Идентификатор                            : 4
Формат                                   : UTF-8
Идентификатор кодека                     : S_TEXT/UTF8
Идентификатор кодека/Информация          : UTF-8 Plain Text
Заголовок                                : English (Full)
Язык                                     : English
Default                                  : Нет
Forced                                   : Нет

Текст #2
Идентификатор                            : 5
Формат                                   : UTF-8
Идентификатор кодека                     : S_TEXT/UTF8
Идентификатор кодека/Информация          : UTF-8 Plain Text
Заголовок                                : English (SDH-Colored)
Язык                                     : English
Default                                  : Да
Forced                                   : Нет

Меню
00:00:00.000                             : en:00:00:00.000
00:07:40.335                             : en:00:07:40.335
00:16:59.936                             : en:00:16:59.936
00:25:05.504                             : en:00:25:05.504
00:32:23.942                             : en:00:32:23.942
00:39:07.178                             : en:00:39:07.178
00:49:42.730                             : en:00:49:42.730
00:56:13.787                             : en:00:56:13.787
01:03:16.126                             : en:01:03:16.126
01:13:51.260                             : en:01:13:51.260
01:20:00.921                             : en:01:20:00.921
01:26:49.121                             : en:01:26:49.121

Скриншоты:








загрузка...
Правила, инструкции, FAQ!!!
Торрент  Добавлен [08 ноя 2013, 19:51] Скачать торрент
Скачать торрент
[ Размер 17.45 КБ / Просмотров 3 ]

Статус  
 
Размер  6.65 ГБ
Приватный: Нет (DHT включён)
.torrent скачан  0
Как залить торрент? | Как скачать Torrent? | Как смотреть и слушать онлайн?  


     Отправить личное сообщение
   
Страница 1 из 1
Показать сообщения за:  Поле сортировки  
Начать новую тему Ответить на тему

   Похожие торренты   Автор   Ответы   Просмотры   Последнее сообщение 
В этой теме нет новых непрочитанных сообщений. Скачать торрент Проверен Грин Грэм - Наёмный убийца [Джекил (ЛИ), 2011 г., 96, MP3]

в форуме Детектив и Боевики, Размер: 250.66 МБ, Здоровье: 0%

Anonymous

0
0|0

0
0

20 ноя 2016, 10:26

Anonymous Перейти к последнему сообщению

В этой теме нет новых непрочитанных сообщений. Скачать торрент Проверен Плачущий убийца / Crying Freeman (1995) BDRip 1080p | P, A

в форуме 720p | 1080p, Размер: 11.24 ГБ, Здоровье: 100%

Anonymous

0
4|1

51
34

06 июн 2014, 21:11

Anonymous Перейти к последнему сообщению

В этой теме нет новых непрочитанных сообщений. Скачать торрент Проверен Киллер Джо / Killer Joe (2011) BDRip 1080p | Unrated | D, L2

в форуме 720p | 1080p, Размер: 7.76 ГБ, Здоровье: 100%

Гость

0
106|101

75
100

25 июл 2015, 22:56

Гость Перейти к последнему сообщению

В этой теме нет новых непрочитанных сообщений. Скачать торрент Проверен Щедрость Перрье / Perrier's Bounty (2009) BDRemux 1080p

в форуме BD-Remux, Размер: 15.33 ГБ, Здоровье: 50%

Anonymous

0
1|2

167
0

05 авг 2014, 22:09

Anonymous Перейти к последнему сообщению

В этой теме нет новых непрочитанных сообщений. Скачать торрент Проверен King's Bounty: Темная Сторона / King's Bounty: Dark Side. Premium Edition (2014) PC | Steam-Rip от R.G. Игроманы

в форуме RPG, Размер: 3.9 ГБ, Здоровье: 100%

Anonymous

0
15|0

145
19

20 авг 2014, 11:46

Anonymous Перейти к последнему сообщению



Сейчас этот форум просматривают: нет зарегистрированных пользователей и гости: 1


Вы не можете начинать темы
Вы не можете отвечать на сообщения
Вы не можете редактировать свои сообщения
Вы не можете удалять свои сообщения
Вы не можете добавлять вложения

Перейти:  

!ВНИМАНИЕ!
 Ресурс не предоставляет электронные версии произведений, а занимается лишь коллекционированием и каталогизацией ссылок, присылаемых и публикуемых на форуме нашими читателями. Если вы являетесь правообладателем какого-либо представленного материала и не желаете чтобы ссылка на него находилась в нашем каталоге, свяжитесь с нами и мы незамедлительно удалим её. Файлы для обмена на трекере предоставлены пользователями сайта, и администрация не несёт ответственности за их содержание. Просьба не заливать файлы, защищенные авторскими правами, а также файлы нелегального содержания!