На всех торрентах на трекере установлена скидка на скачивание в размере 100 процентов(а).
 Возможность скачивания торрента НЕ зависит от ограничений при низком ратио, низком аплоаде, требуемом ратио или требуемом аплоаде.


Начать новую тему Ответить на тему
Статистика раздачи
Размер: 4.57 ГБ | Добавлен: 07 ноя 2013, 08:14 | Скачали: 202
Сидеров: 47  [0 байт/сек]    Личеров: 0  [0 байт/сек]
Пред. тема | След. тема 

Автор
Сообщение

СообщениеДобавлено: 07 ноя 2013, 08:14 

Название: Хулиганы 3
Оригинальное название: Green Street 3: Never Back Down
Год выхода: 2013
Жанр: боевик
Режиссер: Нат Факсон, Джим Рэш

В ролях: Скотт Эдкинс, Кейси Барнфилд, Ли Николас Харрис, Марк Уингетт, Джои Анса, Райан Олива, Джек Дулан, Алистер МакНаб, Мэттью С. Мартино

О фильме:
Дэнни Харви дрался всю свою жизнь: сначала на спортплощадке, потом на футбольном поле, а впоследствии — во главе фанатской группировки под названием «Элита Зелёной Улицы». Четырнадцать лет назад Дэнни отошёл от футбольного насилия и направил своё умение драться в другое русло — в мир смешанных единоборств. Он управляет тренировочным залом для бойцов, одним из самых почитаемых в Великобритании. Несмотря на то, что Дэнни находится вдалеке от своего любимого ФК «Вест Хэм», он неизменный и преданный «хэммер» и неустанно следит за достижениями своей команды. Джоуи, младший брат Дэнни, многие годы тусуется с «Элитой Зелёной Улицы». Обучившись у Дэнни, Джоуи тоже преуспел в ММА, и его старший брат неоднократно советовал ему сосредоточиться на переходе в профессионалы и стать кем-то, вместо того, чтобы заниматься ерундой в группировке. Джоуи последовал его совету и получил проф. лицензию.
Но однажды Джоуи убивают в одной из фанатских разборок…



Выпущено: Великобритания
Продолжительность: 01:33:17
Озвучивание: Любительское (одноголосое) [Артем Белоконский]


Формат: MKV
Качество: BDRip 720p [PHD]
Видео: 4920 kb/s, 1280х544
Аудио: Russian: AC3, 448 kb/s (6 ch) / English: DTS, 1510 kb/s (6 ch)
Субтитры: English
Дополнительно: Сохранены оригинальные чаптеры как на Blu-Ray

Скачать: Сэмпл

Релиз группы:



General
Green.Street.3.Never.Back.Down.2013.BDRip.720p.CINEMANIA.mkv
Format : Matroska
Format version : Version 4 / Version 2
File size : 4.57 GiB
Duration : 1h 33mn
Overall bit rate : 7 016 Kbps
Movie name : CINEMANIA.CC
Encoded date : UTC 2013-11-06 23:11:53
Writing application : mkvmerge v6.5.0 ('Isn't she lovely') built on Oct 20 2013 12:50:05
Writing library : libebml v1.3.0 + libmatroska v1.4.1

Video
ID : 1
Format : AVC
Format/Info : Advanced Video Codec
Format profile : High@L4.1
Format settings, CABAC : Yes
Format settings, ReFrames : 5 frames
Codec ID : V_MPEG4/ISO/AVC
Duration : 1h 33mn
Bit rate : 4 920 Kbps
Width : 1 280 pixels
Height : 544 pixels
Display aspect ratio : 2.35:1
Frame rate mode : Constant
Frame rate : 24.000 fps
Color space : YUV
Chroma subsampling : 4:2:0
Bit depth : 8 bits
Scan type : Progressive
Bits/(Pixel*Frame) : 0.294
Stream size : 3.21 GiB (70%)
Title : CINEMANIA.CC
Language : English
Default : Yes
Forced : No

Audio #1
ID : 2
Format : AC-3
Format/Info : Audio Coding 3
Mode extension : CM (complete main)
Format settings, Endianness : Big
Codec ID : A_AC3
Duration : 1h 33mn
Bit rate mode : Constant
Bit rate : 448 Kbps
Channel(s) : 6 channels
Channel positions : Front: L C R, Side: L R, LFE
Sampling rate : 48.0 KHz
Bit depth : 16 bits
Compression mode : Lossy
Stream size : 299 MiB (6%)
Title : А.Белоконский
Language : Russian
Default : No
Forced : Yes

Audio #2
ID : 3
Format : DTS
Format/Info : Digital Theater Systems
Mode : 16
Format settings, Endianness : Big
Codec ID : A_DTS
Duration : 1h 33mn
Bit rate mode : Constant
Bit rate : 1 509 Kbps
Channel(s) : 6 channels
Channel positions : Front: L C R, Side: L R, LFE
Sampling rate : 48.0 KHz
Bit depth : 24 bits
Compression mode : Lossy
Stream size : 1 007 MiB (22%)
Language : English
Default : No
Forced : No

Text
ID : 4
Format : UTF-8
Codec ID : S_TEXT/UTF8
Codec ID/Info : UTF-8 Plain Text
Language : English
Default : No
Forced : No

Menu
00:00:00.000 : en:00:00:00.000
00:07:53.667 : en:00:07:53.667
00:15:36.958 : en:00:15:36.958
00:22:06.417 : en:00:22:06.417
00:31:22.917 : en:00:31:22.917
00:39:12.542 : en:00:39:12.542
00:47:54.625 : en:00:47:54.625
00:56:29.292 : en:00:56:29.292
01:04:58.250 : en:01:04:58.250
01:11:37.750 : en:01:11:37.750
01:21:27.333 : en:01:21:27.333
01:30:15.833 : en:01:30:15.833
загрузка...
Правила, инструкции, FAQ!!!
Торрент  Добавлен [07 ноя 2013, 08:14] Скачать торрент
Скачать торрент
[ Размер 23.36 КБ / Просмотров 10 ]

Статус  
 
Размер  4.57 ГБ
Приватный: Нет (DHT включён)
.torrent скачан  202
Как залить торрент? | Как скачать Torrent? | Как смотреть и слушать онлайн?  


     Отправить личное сообщение
   
Страница 1 из 1
Показать сообщения за:  Поле сортировки  
Начать новую тему Ответить на тему

   Похожие торренты   Автор   Ответы   Просмотры   Последнее сообщение 
В этой теме нет новых непрочитанных сообщений. Скачать торрент Хулиганы / Хулиганы Зелёной улицы / Green Street Hooligans / Hooligans (2005) BDRip 720p

в форуме 720p | 1080p, Размер: 5.29 ГБ, Здоровье: 100%

Anonymous

0
15|1

46
215

27 мар 2014, 15:05

Anonymous Перейти к последнему сообщению

В этой теме нет новых непрочитанных сообщений. Скачать торрент Хулиганы / Хулиганы Зелёной улицы / Green Street Hooligans / Hooligans (Лекси Александр / Lexi Alexander) [2005, США, Великобритания, драма, криминал, спорт, BDRip] MVO (CP-Digital) + Original + subs (2xRus, Eng)

в форуме Драмы, Мелодрамы, Размер: 2.18 ГБ, Здоровье: 100%

Anonymous

0
56|19

22
0

24 апр 2014, 14:09

Anonymous Перейти к последнему сообщению

В этой теме нет новых непрочитанных сообщений. Скачать торрент Хулиганы / Green Street Hooligans (2005) BDRip 1080p | Р | Open Matte

в форуме 720p | 1080p, Размер: 9.98 ГБ, Здоровье: 100%

Anonymous

0
12|1

49
126

27 мар 2014, 15:11

Anonymous Перейти к последнему сообщению

В этой теме нет новых непрочитанных сообщений. Скачать торрент Проверен [SACD-R][OF] Grant Green - Green Street - 1961/2010 (Jazz)

в форуме Hi-Res stereo (Джаз и Блюз), Размер: 2.2 ГБ, Здоровье: 100%

Anonymous

0
5|1

16
0

27 авг 2016, 13:03

Anonymous Перейти к последнему сообщению

В этой теме нет новых непрочитанных сообщений. Волк с Уолл-стрит / The Wolf of Wall Street (2013) BDRip 720p | Звук c TS | P2

в форуме Новинки кино, Размер: 8.13 ГБ, Здоровье: 0%

Anonymous

0
0|0

100
0

13 мар 2014, 23:54

Anonymous Перейти к последнему сообщению



Сейчас этот форум просматривают: нет зарегистрированных пользователей и гости: 2


Вы не можете начинать темы
Вы не можете отвечать на сообщения
Вы не можете редактировать свои сообщения
Вы не можете удалять свои сообщения
Вы не можете добавлять вложения

Перейти:  

!ВНИМАНИЕ!
 Ресурс не предоставляет электронные версии произведений, а занимается лишь коллекционированием и каталогизацией ссылок, присылаемых и публикуемых на форуме нашими читателями. Если вы являетесь правообладателем какого-либо представленного материала и не желаете чтобы ссылка на него находилась в нашем каталоге, свяжитесь с нами и мы незамедлительно удалим её. Файлы для обмена на трекере предоставлены пользователями сайта, и администрация не несёт ответственности за их содержание. Просьба не заливать файлы, защищенные авторскими правами, а также файлы нелегального содержания!