На всех торрентах на трекере установлена скидка на скачивание в размере 100 процентов(а).
 Возможность скачивания торрента НЕ зависит от ограничений при низком ратио, низком аплоаде, требуемом ратио или требуемом аплоаде.


Начать новую тему Ответить на тему
Статистика раздачи
Размер: 4.49 ГБ | Добавлен: 07 ноя 2013, 08:02 | Скачали: 0
Сидеров: 0  [0 байт/сек]    Личеров: 0  [0 байт/сек]
Пред. тема | След. тема 

Автор
Сообщение

СообщениеДобавлено: 07 ноя 2013, 08:02 

Название: Пучина / Бездна
Оригинальное название: The Deep
Год выпуска: 2012
Жанр: драма
Режиссер: Бальтасар Кормакур

В ролях: Оулавюр Дарри Оулафссон, Йоуханн Г. Йоуханссон, Торбьёрг Хельга Торгильсдоуттир, Теодоур Юлиуссон, Мария Сигурдардоуттир, Бьёрн Торс, Вальтер Гримссон, Стефаун Хадлюр Стефаунссон, Торстейдн Бахманн

О фильме:
Фильм основан на реальных событиях. В марте 1984 года в нескольких километрах от южного побережья Исландии затонуло рыболовное судно. Невероятным образом одному из членов команды удалось спастись. Он провел шесть часов в ледяной воде океана, пока его не выбросило на безжизненный вулканический остров. Но и здесь моряк чудом победил смерть. Однако на этом его беды не закончились…



Выпущено: Исландия
Продолжительность: 01:32:41
Озвучивание: Любительское (многоголосое) [DeadSno & den904]


Формат: MKV
Качество: BDRip 720p [PHD]
Видео: 5832 kb/s, 1280x536
Аудио: Russian: AC3, 192 kb/s (2 ch) / Icelandic: DTS, 768 kb/s (6 ch)
Субтитры: English
Дополнительно: Сохранены оригинальные чаптеры как на Blu-Ray

Скачать: Сэмпл

Релиз группы:



General
The.Deep.2012.BDRip.720p.CINEMANIA.mkv
Format : Matroska
Format version : Version 4 / Version 2
File size : 4.49 GiB
Duration : 1h 32mn
Overall bit rate : 6 930 Kbps
Movie name : CINEMANIA.CC
Encoded date : UTC 2013-11-06 13:39:58
Writing application : mkvmerge v6.5.0 ('Isn't she lovely') built on Oct 20 2013 12:50:05
Writing library : libebml v1.3.0 + libmatroska v1.4.1

Video
ID : 1
Format : AVC
Format/Info : Advanced Video Codec
Format profile : High@L4.1
Format settings, CABAC : Yes
Format settings, ReFrames : 5 frames
Codec ID : V_MPEG4/ISO/AVC
Duration : 1h 32mn
Bit rate : 5 832 Kbps
Width : 1 280 pixels
Height : 536 pixels
Display aspect ratio : 2.40:1
Frame rate mode : Constant
Frame rate : 24.000 fps
Color space : YUV
Chroma subsampling : 4:2:0
Bit depth : 8 bits
Scan type : Progressive
Bits/(Pixel*Frame) : 0.354
Stream size : 3.78 GiB (84%)
Title : CINEMANIA.CC
Language : English
Default : Yes
Forced : No

Audio #1
ID : 2
Format : AC-3
Format/Info : Audio Coding 3
Mode extension : CM (complete main)
Format settings, Endianness : Big
Codec ID : A_AC3
Duration : 1h 32mn
Bit rate mode : Constant
Bit rate : 192 Kbps
Channel(s) : 2 channels
Channel positions : Front: L R
Sampling rate : 48.0 KHz
Bit depth : 16 bits
Compression mode : Lossy
Stream size : 127 MiB (3%)
Title : den904
Language : Russian
Default : Yes
Forced : Yes

Audio #2
ID : 3
Format : DTS
Format/Info : Digital Theater Systems
Mode : 16
Format settings, Endianness : Big
Codec ID : A_DTS
Duration : 1h 32mn
Bit rate mode : Constant
Bit rate : 768 Kbps
Channel(s) : 6 channels
Channel positions : Front: L C R, Side: L R, LFE
Sampling rate : 48.0 KHz
Bit depth : 24 bits
Compression mode : Lossy
Stream size : 509 MiB (11%)
Language : Icelandic
Default : No
Forced : No

Text
ID : 4
Format : UTF-8
Codec ID : S_TEXT/UTF8
Codec ID/Info : UTF-8 Plain Text
Language : English
Default : No
Forced : No

Menu
00:00:00.000 : en:00:00:00.000
00:09:21.292 : en:00:09:21.292
00:16:04.417 : en:00:16:04.417
00:22:51.042 : en:00:22:51.042
00:35:43.500 : en:00:35:43.500
00:47:00.042 : en:00:47:00.042
00:54:46.208 : en:00:54:46.208
01:02:55.583 : en:01:02:55.583
01:12:56.792 : en:01:12:56.792
01:25:18.250 : en:01:25:18.250

загрузка...
Правила, инструкции, FAQ!!!
Торрент  Добавлен [07 ноя 2013, 08:02] Скачать торрент
Скачать торрент
[ Размер 22.91 КБ / Просмотров 8 ]

Статус  
 
Размер  4.49 ГБ
Приватный: Нет (DHT включён)
.torrent скачан  0
Как залить торрент? | Как скачать Torrent? | Как смотреть и слушать онлайн?  


     Отправить личное сообщение
   
Страница 1 из 1
Показать сообщения за:  Поле сортировки  
Начать новую тему Ответить на тему

   Похожие торренты   Автор   Ответы   Просмотры   Последнее сообщение 
В этой теме нет новых непрочитанных сообщений. Скачать торрент Проверен Deep Purple with Orchestra - Live in Verona (2014) BDRip 720p

в форуме Концерты (HD-Video), Размер: 4.2 ГБ, Здоровье: 100%

Anonymous

0
27|2

72
377

11 ноя 2014, 17:22

Anonymous Перейти к последнему сообщению

В этой теме нет новых непрочитанных сообщений. Скачать торрент Проверен Deep Purple: Live at Montreux (2006 г., Rock) [720p, DTS, BDrip]

в форуме Концерты (HD-Video), Размер: 4.36 ГБ, Здоровье: 100%

Anonymous

0
1|0

0
0

23 окт 2016, 14:54

Anonymous Перейти к последнему сообщению

В этой теме нет новых непрочитанных сообщений. Скачать торрент Глубокое синее море / Deep Blue Sea (1999) BDRip 720p | D, A

в форуме 720p | 1080p, Размер: 4.37 ГБ, Здоровье: 100%

Anonymous

0
35|7

46
34

09 янв 2014, 06:43

Anonymous Перейти к последнему сообщению

В этой теме нет новых непрочитанных сообщений. Скачать торрент Проверен Deep Purple - ...To The Rising Sun (In Tokyo) [2015, Hard Rock, BDRip 720p]

в форуме Концерты (HD-Video), Размер: 4.37 ГБ, Здоровье: 100%

Anonymous

0
7|2

1
0

23 окт 2016, 14:00

Anonymous Перейти к последнему сообщению

В этой теме нет новых непрочитанных сообщений. Скачать торрент Проверен Deep Purple: Phoenix Rising [2011, Rock, Documentary, BDRip 720p] rus sub

в форуме Концерты (HD-Video), Размер: 4.71 ГБ, Здоровье: 100%

Anonymous

0
3|1

10
0

23 окт 2016, 16:06

Anonymous Перейти к последнему сообщению



Сейчас этот форум просматривают: нет зарегистрированных пользователей и гости: 1


Вы не можете начинать темы
Вы не можете отвечать на сообщения
Вы не можете редактировать свои сообщения
Вы не можете удалять свои сообщения
Вы не можете добавлять вложения

Перейти:  

!ВНИМАНИЕ!
 Ресурс не предоставляет электронные версии произведений, а занимается лишь коллекционированием и каталогизацией ссылок, присылаемых и публикуемых на форуме нашими читателями. Если вы являетесь правообладателем какого-либо представленного материала и не желаете чтобы ссылка на него находилась в нашем каталоге, свяжитесь с нами и мы незамедлительно удалим её. Файлы для обмена на трекере предоставлены пользователями сайта, и администрация не несёт ответственности за их содержание. Просьба не заливать файлы, защищенные авторскими правами, а также файлы нелегального содержания!