На всех торрентах на трекере установлена скидка на скачивание в размере 100 процентов(а).
 Возможность скачивания торрента НЕ зависит от ограничений при низком ратио, низком аплоаде, требуемом ратио или требуемом аплоаде.


Начать новую тему Ответить на тему
Статистика раздачи
Размер: 4.31 ГБ | Добавлен: 06 ноя 2013, 23:52 | Скачали: 0
Сидеров: 0  [0 байт/сек]    Личеров: 0  [0 байт/сек]
Пред. тема | След. тема 

Автор
Сообщение

СообщениеДобавлено: 06 ноя 2013, 23:52 

Название: Мы – Миллеры
Оригинальное название: We're the Millers
Год выхода: 2013
Жанр: комедия, криминал
Режиссер: Роусон Маршалл Тёрбер

В ролях: Дженнифер Энистон, Джейсон Судейкис, Уилл Поултер, Эмма Робертс, Эд Хелмс, Ник Офферман, Кэтрин Хан, Молли С. Куинн, Томер Сисле

О ФИЛЬМЕ
Дэвид Берк — мелкий торговец наркотиками. Среди его клиентов — повара и скучающие домохозяйки. Детям он наркотики не продаёт и поэтому считает себя принципиальным человеком. Дэвид действительно хорошо относится к детям, но это не остается безнаказанным — он пытается помочь подросткам, попавшим в беду, и на него нападают хулиганы-панки. Они отбирают у него наркотики и деньги, и наш герой оказывается в отчаянном положении. Ведь ему нечем расплатиться с его поставщиком Брэдом. Единственный выход — подрядиться на доставку крупной партии наркотиков через границу…



Страна: США
Производство: BenderSpink, New Line Cinema, Vincent Newman Entertainment
Продолжительность: 01:58:43
Перевод: Профессиональный (многолосый) [Baibako]


Качество: BDRip 720p
Формат: MKV
Видео: AVC, 1280x534 (2.40:1) at 23.976 fps, AVC at 4371 kbps avg, 0.267 bit/pixel
Аудио 1: Русский AC3 / 6ch / 384 kbps | Дубляж [BaibaKo]
Аудио 2: Английский AC3 / 6ch / 448 kbps | Original
Дополнительно: Сохранены оригинальные чаптеры как на Blu-Ray






General
Unique ID : 234545747507234574807516713949190596520 (0xB073DE2B1BD60F359BA907DE98FAA7A8)
Complete name : H:Were.the.Millers.Extended.2013.BD.720.Hot-Film.mkv
Format : Matroska
Format version : Version 2
File size : 4.31 GiB
Duration : 1h 58mn
Overall bit rate : 5 202 Kbps
Encoded date : UTC 2013-11-06 16:50:54
Writing application : mkvmerge v5.8.0 ('No Sleep / Pillow') built on Sep 2 2012 15:37:04
Writing library : libebml v1.2.3 + libmatroska v1.3.0

Video
ID : 1
Format : AVC
Format/Info : Advanced Video Codec
Format profile : High@L4.1
Format settings, CABAC : Yes
Format settings, ReFrames : 11 frames
Codec ID : V_MPEG4/ISO/AVC
Duration : 1h 58mn
Bit rate : 4 371 Kbps
Width : 1 280 pixels
Height : 534 pixels
Display aspect ratio : 2.40:1
Frame rate mode : Constant
Frame rate : 23.976 fps
Color space : YUV
Chroma subsampling : 4:2:0
Bit depth : 8 bits
Scan type : Progressive
Bits/(Pixel*Frame) : 0.267
Stream size : 3.54 GiB (82%)
Writing library : x264 core 133 r2334 a3ac64b
Encoding settings : cabac=1 / ref=11 / deblock=1:-3:-3 / analyse=0x3:0x113 / me=umh / subme=11 / psy=1 / psy_rd=1.02:0.10 / mixed_ref=1 / me_range=32 / chroma_me=1 / trellis=2 / 8x8dct=1 / cqm=0 / deadzone=21,11 / fast_pskip=0 / chroma_qp_offset=-3 / threads=2 / lookahead_threads=1 / sliced_threads=0 / nr=0 / decimate=0 / interlaced=0 / bluray_compat=0 / constrained_intra=0 / bframes=10 / b_pyramid=2 / b_adapt=2 / b_bias=0 / direct=3 / weightb=1 / open_gop=0 / weightp=2 / keyint=240 / keyint_min=23 / scenecut=40 / intra_refresh=0 / rc_lookahead=40 / rc=2pass / mbtree=0 / bitrate=4371 / ratetol=1.0 / qcomp=0.60 / qpmin=0 / qpmax=69 / qpstep=4 / cplxblur=20.0 / qblur=0.5 / vbv_maxrate=50000 / vbv_bufsize=62500 / nal_hrd=none / ip_ratio=1.40 / pb_ratio=1.30 / aq=1:0.80
Language : English
Default : Yes
Forced : No

Audio #1
ID : 2
Format : AC-3
Format/Info : Audio Coding 3
Mode extension : CM (complete main)
Format settings, Endianness : Big
Codec ID : A_AC3
Duration : 1h 58mn
Bit rate mode : Constant
Bit rate : 384 Kbps
Channel(s) : 6 channels
Channel positions : Front: L C R, Side: L R, LFE
Sampling rate : 48.0 KHz
Bit depth : 16 bits
Compression mode : Lossy
Stream size : 326 MiB (7%)
Title : BaibaKo
Language : Russian
Default : Yes
Forced : No

Audio #2
ID : 3
Format : AC-3
Format/Info : Audio Coding 3
Mode extension : CM (complete main)
Format settings, Endianness : Big
Codec ID : A_AC3
Duration : 1h 58mn
Bit rate mode : Constant
Bit rate : 448 Kbps
Channel(s) : 6 channels
Channel positions : Front: L C R, Side: L R, LFE
Sampling rate : 48.0 KHz
Bit depth : 16 bits
Compression mode : Lossy
Stream size : 380 MiB (9%)
Title : Original
Language : English
Default : No
Forced : No

Menu
00:00:00.000 : :Chapter 01
00:09:20.059 : :Chapter 02
00:20:16.048 : :Chapter 03
00:30:49.639 : :Chapter 04
00:42:07.150 : :Chapter 05
00:52:05.998 : :Chapter 06
01:02:17.776 : :Chapter 07
01:13:22.982 : :Chapter 08
01:24:57.259 : :Chapter 09
01:36:17.063 : :Chapter 10
01:48:36.677 : :Chapter 11
01:51:39.276 : :Chapter 12

Релиз от:
загрузка...
Правила, инструкции, FAQ!!!
Торрент  Добавлен [06 ноя 2013, 23:52] Скачать торрент
Скачать торрент
[ Размер 22.06 КБ / Просмотров 8 ]

Статус  
 
Размер  4.31 ГБ
Приватный: Нет (DHT включён)
.torrent скачан  0
Как залить торрент? | Как скачать Torrent? | Как смотреть и слушать онлайн?  


     Отправить личное сообщение
   
Страница 1 из 1
Показать сообщения за:  Поле сортировки  
Начать новую тему Ответить на тему

   Похожие торренты   Автор   Ответы   Просмотры   Последнее сообщение 
В этой теме нет новых непрочитанных сообщений. Скачать торрент Пленницы / Prisoners (2013) BDRip 720p | BaibaKo

в форуме 720p | 1080p, Размер: 2.92 ГБ, Здоровье: 0%

Anonymous

0
0|0

26
0

21 янв 2014, 10:36

Anonymous Перейти к последнему сообщению

В этой теме нет новых непрочитанных сообщений. Скачать торрент Реальная белка / The Nut Job (2014) BDRip 720p | BaibaKo

в форуме Зарубежные мультфильмы (HD Video), Размер: 3.59 ГБ, Здоровье: 100%

Anonymous

0
2|0

49
0

05 апр 2014, 08:39

Anonymous Перейти к последнему сообщению

В этой теме нет новых непрочитанных сообщений. Скачать торрент Проверен Академия вампиров / Vampire Academy (2014) BDRip 720p | BaibaKo

в форуме 720p | 1080p, Размер: 5.28 ГБ, Здоровье: 100%

Anonymous

0
26|0

30
2298

20 май 2014, 09:16

Anonymous Перейти к последнему сообщению

В этой теме нет новых непрочитанных сообщений. Скачать торрент Джо / Joe (2013) WEB-DL 720p | BaibaKo

в форуме 720p | 1080p, Размер: 3.75 ГБ, Здоровье: 0%

Anonymous

0
0|0

32
0

28 апр 2014, 22:27

Anonymous Перейти к последнему сообщению

В этой теме нет новых непрочитанных сообщений. Скачать торрент Проверен Команда «А» / The A-Team (2010) BDRip 720p | Extended Cut

в форуме 720p | 1080p, Размер: 5.29 ГБ, Здоровье: 100%

Гость

0
40|5

16
206

01 дек 2014, 17:17

Гость Перейти к последнему сообщению



Сейчас этот форум просматривают: нет зарегистрированных пользователей и гости: 3


Вы не можете начинать темы
Вы не можете отвечать на сообщения
Вы не можете редактировать свои сообщения
Вы не можете удалять свои сообщения
Вы не можете добавлять вложения

Перейти:  

!ВНИМАНИЕ!
 Ресурс не предоставляет электронные версии произведений, а занимается лишь коллекционированием и каталогизацией ссылок, присылаемых и публикуемых на форуме нашими читателями. Если вы являетесь правообладателем какого-либо представленного материала и не желаете чтобы ссылка на него находилась в нашем каталоге, свяжитесь с нами и мы незамедлительно удалим её. Файлы для обмена на трекере предоставлены пользователями сайта, и администрация не несёт ответственности за их содержание. Просьба не заливать файлы, защищенные авторскими правами, а также файлы нелегального содержания!