На всех торрентах на трекере установлена скидка на скачивание в размере 100 процентов(а).
 Возможность скачивания торрента НЕ зависит от ограничений при низком ратио, низком аплоаде, требуемом ратио или требуемом аплоаде.


Начать новую тему Ответить на тему
Статистика раздачи
Размер: 2.17 ГБ | Добавлен: 06 ноя 2013, 23:10 | Скачали: 0
Сидеров: 0  [0 байт/сек]    Личеров: 0  [0 байт/сек]
Пред. тема | След. тема 

Автор
Сообщение

СообщениеДобавлено: 06 ноя 2013, 23:10 

Название: Лиля навсегда
Оригинальное название: Lilja 4-ever
Год выхода: 2002
Жанр: драма, криминал
Режиссер: Лукас Мудиссон

В ролях: Оксана Акиньшина, Артем Богучарский, Любовь Агапова, Лиля Шинкарева, Элина Бенинсон, Павел Пономарев, Томас Нойманн, Анастасия Бедрединова, Николай Бентслер

О фильме:
16-летняя Лиля живет в маленьком бедном городке где-то в бывшем Советском Союзе. Ее мать уехала в Америку с новым любовником, и Лиля ждет, когда ей пришлют приглашение. Не дождавшись от матери ни писем, ни денег, Лиля понимает, что ее бросили.

У нее остается единственный друг — 11-летний Володя, с которым они мечтают о лучшей жизни. И однажды у Лили появляется надежда. Она влюбляется во взрослого симпатичного парня по имени Андрей, и он уговаривает Лилю поехать вместе с ним в Швецию…

Общее
Уникальный идентификатор : 196839948442953919273495803959555661749 (0x9415FEBE990D02508DF1913AA2901FB5)
Полное имя : Лиля навсегда/ Lilja_4-ever.mkv
Формат : Matroska
Версия формата : Version 4 / Version 2
Размер файла : 2,17 Гбайт
Продолжительность : 1 ч. 44 м.
Общий поток : 2975 Кбит/сек
Дата кодирования : UTC 2013-11-06 14:11:39
Программа кодирования : mkvmerge v6.1.0 ('Old Devil') built on Mar 4 2013 09:10:42
Библиотека кодирования : libebml v1.3.0 + libmatroska v1.4.0

Видео
Идентификатор : 1
Формат : AVC
Формат/Информация : Advanced Video Codec
Профиль формата : High@L4.1
Параметр CABAC формата : Да
Параметр ReFrames формата : 8 кадров
Идентификатор кодека : V_MPEG4/ISO/AVC
Продолжительность : 1 ч. 44 м.
Битрейт : 2526 Кбит/сек
Ширина : 720 пикселей
Высота : 400 пикселей
Соотношение сторон : 16:9
Режим частоты кадров : Постоянный
Частота кадров : 25,000 кадров/сек
Цветовое пространство : YUV
Субдискретизация насыщенности : 4:2:0
Битовая глубина : 8 бит
Тип развёртки : Прогрессивная
Бит/(Пиксели*Кадры) : 0.351
Размер потока : 1,80 Гбайт (83%)
Библиотека кодирования : x264 core 130 r2273 b3065e6
Настройки программы : cabac=1 / ref=8 / deblock=1:-2:-2 / analyse=0x3:0x133 / me=umh / subme=11 / psy=1 / psy_rd=1.00:0.10 / mixed_ref=1 / me_range=64 / chroma_me=1 / trellis=2 / 8x8dct=1 / cqm=0 / deadzone=21,11 / fast_pskip=0 / chroma_qp_offset=-3 / threads=3 / lookahead_threads=1 / sliced_threads=0 / nr=0 / decimate=1 / interlaced=0 / bluray_compat=0 / constrained_intra=0 / bframes=8 / b_pyramid=2 / b_adapt=2 / b_bias=0 / direct=3 / weightb=1 / open_gop=0 / weightp=2 / keyint=250 / keyint_min=25 / scenecut=40 / intra_refresh=0 / rc_lookahead=50 / rc=2pass / mbtree=1 / bitrate=2526 / ratetol=1.0 / qcomp=0.60 / qpmin=0 / qpmax=69 / qpstep=4 / cplxblur=20.0 / qblur=0.5 / ip_ratio=1.40 / aq=1:1.00
Default : Да
Forced : Нет

Аудио
Идентификатор : 2
Формат : AC-3
Формат/Информация : Audio Coding 3
Расширение режима : CM (complete main)
Параметр Endianness формата : Big
Идентификатор кодека : A_AC3
Продолжительность : 1 ч. 44 м.
Вид битрейта : Постоянный
Битрейт : 448 Кбит/сек
Каналы : 6 каналов
Расположение каналов : Front: L C R, Side: L R, LFE
Частота : 48,0 КГц
Битовая глубина : 16 бит
Метод сжатия : С потерями
Задержка видео : 1 с. 0 мс.
Размер потока : 335 Мбайт (15%)
Заголовок : Оригинал
Язык : Russian
Default : Да
Forced : Нет

Текст #1
Идентификатор : 3
Формат : UTF-8
Идентификатор кодека : S_TEXT/UTF8
Идентификатор кодека/Информация : UTF-8 Plain Text
Заголовок : Оригинал
Язык : Russian
Default : Нет
Forced : Нет

Текст #2
Идентификатор : 4
Формат : UTF-8
Идентификатор кодека : S_TEXT/UTF8
Идентификатор кодека/Информация : UTF-8 Plain Text
Заголовок : Английские
Язык : English
Default : Нет
Forced : Нет

Текст #3
Идентификатор : 5
Формат : UTF-8
Идентификатор кодека : S_TEXT/UTF8
Идентификатор кодека/Информация : UTF-8 Plain Text
Заголовок : Голландские
Язык : Dutch
Default : Нет
Forced : Нет



Страна: Швеция, Дания
Продолжительность: 1:44:38
Перевод: Русский (оригинал)


Кодек: AVC
Качество: DVDRip
Видео: 720x400, 25 fps, 2526 kb/s
Звук: AC 3, 6 каналов, 448 Кбит/сек,48,0 КГц
Субтитры: русские, английские, голландские

загрузка...
Правила, инструкции, FAQ!!!
Торрент  Добавлен [06 ноя 2013, 23:10] Скачать торрент
Скачать торрент
[ Размер 11.27 КБ / Просмотров 15 ]

Статус  
 
Размер  2.17 ГБ
Приватный: Нет (DHT включён)
.torrent скачан  0
Как залить торрент? | Как скачать Torrent? | Как смотреть и слушать онлайн?  


     Отправить личное сообщение
   
Страница 1 из 1
Показать сообщения за:  Поле сортировки  
Начать новую тему Ответить на тему

   Похожие торренты   Автор   Ответы   Просмотры   Последнее сообщение 
В этой теме нет новых непрочитанных сообщений. Скачать торрент Ты и я навсегда / You & Me Forever (2012) DVDRip | Лицензия

в форуме Драмы, Мелодрамы, Размер: 1.36 ГБ, Здоровье: 0%

Anonymous

0
0|0

25
0

17 дек 2013, 22:42

Anonymous Перейти к последнему сообщению

В этой теме нет новых непрочитанных сообщений. Скачать торрент Проверен ДаЛи - Птицей/Навсегда (2002/2007) [APE|Lossless]<Rock>

в форуме Русский рок, Размер: 568.48 МБ, Здоровье: 0%

Anonymous

0
0|0

20
0

11 авг 2014, 08:50

Anonymous Перейти к последнему сообщению

В этой теме нет новых непрочитанных сообщений. Скачать торрент Проверен (Rock) ДаЛи - Птицей (2002) и Навсегда (2007) - MP3 (tracks), 320 kbps

в форуме Русский Рок, Размер: 167.74 МБ, Здоровье: 0%

Anonymous

0
0|0

0
0

21 авг 2016, 13:52

Anonymous Перейти к последнему сообщению

В этой теме нет новых непрочитанных сообщений. Скачать торрент Проверен Владимир Форс и др. | 16 навыков, которые изменят вашу личную и профессиональную жизнь навсегда (2011) DVDRip

в форуме Интерактивные обучающие и развивающие материалы, Размер: 3.28 ГБ, Здоровье: 100%

Anonymous

0
12|5

42
5

30 авг 2015, 21:31

Anonymous Перейти к последнему сообщению

В этой теме нет новых непрочитанных сообщений. Скачать торрент Проверен Маяковский В.В. - Про это. Читает Лиля Брик [2005, 128 kbps]

в форуме Современная проза и поэзия, Размер: 51.6 МБ, Здоровье: 0%

Anonymous

0
0|0

0
0

10 сен 2016, 10:36

Anonymous Перейти к последнему сообщению



Сейчас этот форум просматривают: нет зарегистрированных пользователей и гости: 4


Вы не можете начинать темы
Вы не можете отвечать на сообщения
Вы не можете редактировать свои сообщения
Вы не можете удалять свои сообщения
Вы не можете добавлять вложения

Перейти:  

!ВНИМАНИЕ!
 Ресурс не предоставляет электронные версии произведений, а занимается лишь коллекционированием и каталогизацией ссылок, присылаемых и публикуемых на форуме нашими читателями. Если вы являетесь правообладателем какого-либо представленного материала и не желаете чтобы ссылка на него находилась в нашем каталоге, свяжитесь с нами и мы незамедлительно удалим её. Файлы для обмена на трекере предоставлены пользователями сайта, и администрация не несёт ответственности за их содержание. Просьба не заливать файлы, защищенные авторскими правами, а также файлы нелегального содержания!